↑↓torrent.by
Поиск
Логин:  Регистрация
Пароль:

Неспящие / Awake (2021) WEB-DLRip от ExKinoRay | D

download Скачать торрент-файл   magnet Магнитная ссылка Размер: 738.41 MB Добавлен: 2024-05-08 17:00
Пиры будут получены из сети DHT
Последний сидер был замечен 2024-05-08 17:00
Информация о фильме Название: Неспящие Оригинальное название: Awake Год выхода: 2021 Жанр: фантастика, боевик, триллер, драма, приключения Режиссер: Марк Расо В ролях: Джина Родригес, Ариана Гринблатт, Фрэнсис Фишер, Дженнифер Джейсон Ли, Барри Пеппер, Шамир Андерсон, Финн Джонс, Люсиус Хойос, Гил Беллоуз, Себастьян Пижотт О фильме: В результате глобальной катастрофы перестают работать электронные приборы и люди теряют способность спать. Мир погружается в хаос. Только у Джилл, бывшей военнослужащей с непростым прошлым, возможно, есть ключ к спасению — ее собственная дочь... Страна: США Студия: Aurum Producciones S.A., Netflix, Paul Schiff Productions Продолжительность: 01:37:20 Перевод: Профессиональный дублированный - VSI Moscow Файл Кодек: XviD Качество: WEB-DLRip Видео: 640x320 (2.00:1), 24 fps, XviD build 67 ~920 kbps avg, 0.19 bit/pixel Звук: 48 kHz, MP3, 2 ch, ~128.00 kbps avg Субтитры: Русские (Forced) - отдельно
[+] MediaInfoGeneral Complete name : D: Awake.2021.WEB-DLRip.by.ExKinoRay & Shkiper.avi Format : AVI Format/Info : Audio Video Interleave Format settings : BitmapInfoHeader / WaveFormatEx File size : 738 MiB Duration : 1 h 37 min Overall bit rate : 1 060 kb/s Frame rate : 24.000 FPS Writing application : Lavf58.29.100 Video ID : 0 Format : MPEG-4 Visual Format profile : Advanced Simple@L5 Format settings : BVOP1 / Custom Matrix Format settings, BVOP : 1 Format settings, QPel : No Format settings, GMC : No warppoints Format settings, Matrix : Custom Codec ID : XVID Codec ID/Hint : XviD Duration : 1 h 37 min Bit rate : 920 kb/s Width : 640 pixels Height : 320 pixels Display aspect ratio : 2.000 Frame rate : 24.000 FPS Color space : YUV Chroma subsampling : 4:2:0 Bit depth : 8 bits Scan type : Progressive Original scan type : Interlaced Original scan order : Bottom Field First Compression mode : Lossy Bits/(Pixel*Frame) : 0.187 Stream size : 640 MiB (87%) Writing library : XviD 67 Audio ID : 1 Format : MPEG Audio Format version : Version 1 Format profile : Layer 3 Format settings : Joint stereo / MS Stereo Codec ID : 55 Codec ID/Hint : MP3 Duration : 1 h 37 min Bit rate mode : Constant Bit rate : 128 kb/s Channel(s) : 2 channels Sampling rate : 48.0 kHz Compression mode : Lossy Stream size : 89.1 MiB (12%) Alignment : Aligned on interleaves Interleave, duration : 24 ms (0.58 video frame) Writing library : LAME3.100ªª
[+] Скриншоты
Релиз от: Рип изготовил:

Всего файлов в раздаче: 2 
Awake.2021.WEB-DLRip.by.ExKinoRay & Shkiper.avi738.41 MB
forced_rus.srt786.00 B

Кто качает (только для создателя раздачи и модераторов): Локальные пиры отсутствуют

Комментарии


Зарегистрируйтесь чтобы добавить комментарий
Торрент клиент
byTorrent - программа для загрузки торрент-файлов.

Скачать byTorrent.exe (1,5 МБ)

Скачать byTorrent.zip (0,6 МБ)

Поддержи torrent.by
российских рублей
(300 российских рублей это 4$)

Обратная связь rss

End game ©