↑↓torrent.by
Поиск
Логин:  Регистрация
Пароль:

Любовь на миллион / The Modelizer / Hong Kong Love Story (2023) WEB-DLRip от New-Team | D

download Скачать торрент-файл   magnet Магнитная ссылка Размер: 1.46 GB Добавлен: 2024-05-08 17:00
Пиры будут получены из сети DHT
Последний сидер был замечен 2024-06-15 22:56
Любовь на миллион / The Modelizer / Hong Kong Love Story Год выпуска: 2023 Выпущено: США / ROA HK Жанр: мелодрама, комедия Режиссер: Киони Ваксман / Keoni Waxman В ролях: Джулия Никсон-Соул, Байрон Манн, Хана Хжих, Селинда Шонмейкер, Кеннет Цан, Доминика Качлик, Никкун, Джей Дэй, Эдриенн Лау, Филипп Жоли О фильме: Закоренелый холостяк, наследник очень богатой и влиятельной семьи, наслаждается разгульной и бесшабашной жизнью. Но однажды в баре он встречает обычную на вид девушку, которая отказывается играть по его правилам. Ему приходится приложить немало усилий, чтобы завоевать её сердце, переступив через все свои принципы. Продолжительность: 01:36:03 Перевод: Профессиональный (полное дублирование) | Видео Продакшн Субтитры: Русские (forced (hardsub)) Раздача от: Автор релиза: JNS82. Формат: AVI Качество: WEB-DLRip Видео: 720x304 (2.35:1), 23.976 fps, XviD MPEG-4 ~ 1724 kbps avg, 0.328 bit/pixel, build 73 Аудио: 48 kHz, AC3 Dolby Digital, 3/2 (L,C,R,l,r) + LFE ch, ~ 448 kbps | RUS |
[+] MediaInfoОбщее Полное имя : D:TorrentsThe.Modelizer.2023.WEB-DLRip_от New-Team_by_JNS82.avi Формат : AVI Формат/Информация : Audio Video Interleave Размер файла : 1,46 Гбайт Продолжительность : 1 ч. 36 м. Общий поток : 2 181 Кбит/сек Программа кодирования : VirtualDubMod 1.5.10.2 (build 2540/release) Библиотека кодирования : VirtualDubMod build 2540/release Видео Идентификатор : 0 Формат : MPEG-4 Visual Профиль формата : Advanced Simple@L5 Настройки формата : BVOP1 / Custom Matrix Параметр BVOP формата : 1 Параметр QPel формата : Нет Параметр GMC формата : Без точки перехода Параметр матрицы формата : Выборочная Идентификатор кодека : XVID Идентификатор кодека/Подсказка : XviD Продолжительность : 1 ч. 36 м. Битрейт : 1 724 Кбит/сек Ширина : 720 пикселей Высота : 304 пикселя Соотношение сторон : 2,35:1 Частота кадров : 23,976 (24000/1001) кадра/сек Цветовое пространство : YUV Субдискретизация насыщенности : 4:2:0 Битовая глубина : 8 бит Тип развёртки : Прогрессивная Метод сжатия : С потерями Бит/(Пиксели*Кадры) : 0.328 Размер потока : 1,16 Гбайт (79%) Библиотека кодирования : XviD 73 Аудио Идентификатор : 1 Формат : AC-3 Формат/Информация : Audio Coding 3 Коммерческое название : Dolby Digital Идентификатор кодека : 2000 Продолжительность : 1 ч. 36 м. Вид битрейта : Постоянный Битрейт : 448 Кбит/сек Каналы : 6 каналов Channel layout : L R C LFE Ls Rs Частота : 48,0 КГц Частота кадров : 31,250 кадров/сек (1536 SPF) Метод сжатия : С потерями Размер потока : 308 Мбайт (21%) Выравнивание : Разделение по промежуткам Продолжительность промежутка : 42 мс. (1,00 видеокадр) Время предзагрузки промежутка : 500 мс. Service kind : Complete Main

Всего файлов в раздаче: 1 
The.Modelizer.2023.WEB-DLRip_от New-Team_by_JNS82.avi1.46 GB

Похожие раздачи по запросу - Любовь
Вчера magnet Сергей Одинцов - Не прячь любовь (2024) MP3 88.66 MB ↑ 1 ↓ 0
2024-06-15 magnet ТАОН - Любовь к ROCK'N'ROLLy (2024) MP3 72.58 MB ↑ 0 ↓ 0
2024-06-09 magnet Любовь в воздухе / Love in the Air / Romance with a Twist (2024) WEB-DL 720p от селезень | P | TVShows 3.16 GB ↑ 0 ↓ 0
2024-06-09 magnet Любовь в воздухе / Love in the Air / Romance with a Twist (2024) WEB-DL 1080p от New-Team | P | TVShows 4.91 GB ↑ 0 ↓ 0
2024-06-07 magnet Любовь со второго взгляда (2024) WEB-DLRip от Generalfilm | КПК 369.44 MB ↑ 0 ↓ 0
2024-06-02 magnet Когда любовь совсем не ждешь [S01] (2012-2024) WEB-DLRip от Generalfilm | КПК 756.25 MB ↑ 0 ↓ 0
2024-06-01 magnet Это про любовь? / A Question of Love? (2023) HDTVRip 720p | Р1 1.50 GB ↑ 0 ↓ 0

Кто качает (только для создателя раздачи и модераторов): Локальные пиры отсутствуют

Комментарии


Зарегистрируйтесь чтобы добавить комментарий
Торрент клиент
byTorrent - программа для загрузки торрент-файлов.

Скачать byTorrent.exe (1,5 МБ)

Скачать byTorrent.zip (0,6 МБ)

Поддержи torrent.by
российских рублей
(300 российских рублей это 4$)

Обратная связь rss

End game ©