↑↓torrent.by
Поиск
Логин:  Регистрация
Пароль:

Ордер на смерть / Death Warrant (1990) HDRip-AVC от ExKinoRay | P

download Скачать торрент-файл   magnet Магнитная ссылка Размер: 746.21 MB Добавлен: 2024-05-08 17:00
Пиры будут получены из сети DHT
Последний сидер был замечен 2024-05-12 22:28
Информация о фильме Название: Ордер на смерть Оригинальное название: Death Warrant Год выхода: 1990 Жанр: боевик, триллер, криминал, детектив Режиссер: Деран Сарафян В ролях: Жан-Клод Ван Дамм, Роберт Гийом, Синтия Гибб, Джордж Дикерсон, Арт ЛаФлёр, Патрик Килпатрик, Джошуа Джон Миллер, Хэнк Стоун, Конрад Данн, Джек Бэннон, Абдул Салаам Эль Раззас, Армин Шимерман, Джон Лэнц, Ганс Хоус, Гарри Уотерс мл., Дороти Деллс, Пауло Тока, Карлис Бурк, Камель Крифа, Аль Леонг, Дэвид Эрскин, Гэри Сервантес, С.Э. Граймс, Ник Гамбэлла, Роберт Уинли, Дэнни Уизелис, Рик Аллен, Джордж Мэк, Джеймс Харди, Джон Де Белло, Джерри Блэк, Марк ДиСалле, Ричард Л. Дюран, Томас Розалес мл., Ларри Хэнкин, Ли Пэйн, Джек Рубио О фильме : Офицер Луис Берк, полицейский детектив, отправляется под видом осуждённого в тюрьму «Харрисон», чтобы раскрыть серию убийств заключённых. В стенах тюрьмы он сталкивается с жестокостью сокамерников, с коррумпированными охранниками, со смертью и предательством всех мастей. Когда Берк узнает шокирующую тайну тюрьмы, он должен совершить дерзкий побег – его последний шанс вырваться из лап сотен осуждённых головорезов, возглавляемых его кровным врагом. Страна: Канада, США Студия: Pathé Pictures International, Cannon Films Продолжительность: 01:29:03 Перевод: Профессиональный (многоголосый, закадровый) НТВ+ Файл Формат: MKV Качество: HDRip-AVC Видео: MPEG-4 AVC, 752x408, ~ 1094 Кбит/с Аудио: AAC-LC, 2 ch, ~ 76 Кбит/с
[+] MIОбщее Уникальный идентификатор : 203761245940417720717667547428569765347 (0x994AFD0EBE8ADA949DF52ED7CCB455E3) Полное имя : D:MOVIESDeath.Warrant.1990.ExKinoRay.mkv Формат : Matroska Версия формата : Version 4 / Version 2 Размер файла : 746 Мбайт Продолжительность : 1 ч. 29 м. Общий поток : 1171 Кбит/сек Дата кодирования : UTC 2017-11-15 19:23:53 Программа кодирования : mkvmerge v15.0.0 ('Duel with the Devil') 64-bit Библиотека кодирования : libebml v1.3.5 + libmatroska v1.4.5 Видео Идентификатор : 1 Формат : AVC Формат/Информация : Advanced Video Codec Профиль формата : High@L4.1 Параметр CABAC формата : Да Параметр RefFrames формата : 10 кадров Идентификатор кодека : V_MPEG4/ISO/AVC Продолжительность : 1 ч. 29 м. Битрейт : 1094 Кбит/сек Ширина : 752 пикселя Высота : 408 пикселей Соотношение сторон : 1,85:1 Режим частоты кадров : Постоянный Частота кадров : 23,976 (24000/1001) кадра/сек Цветовое пространство : YUV Субдискретизация насыщенности : 4:2:0 Битовая глубина : 8 бит Тип развёртки : Прогрессивная Бит/(Пиксели*Кадры) : 0.149 Размер потока : 696 Мбайт (93%) Библиотека кодирования : x264 core 152 r2851kMod ba24899 Настройки программы : cabac=1 / ref=10 / deblock=1:-3:-3 / analyse=0x3:0x133 / me=umh / subme=11 / psy=1 / fade_compensate=0.00 / psy_rd=1.00:0.05 / mixed_ref=1 / me_range=32 / chroma_me=1 / trellis=2 / 8x8dct=1 / cqm=0 / deadzone=21,11 / fast_pskip=0 / chroma_qp_offset=-3 / threads=6 / lookahead_threads=1 / sliced_threads=0 / nr=0 / decimate=0 / interlaced=0 / bluray_compat=0 / constrained_intra=0 / bframes=10 / b_pyramid=2 / b_adapt=2 / b_bias=0 / direct=3 / weightb=1 / open_gop=0 / weightp=2 / keyint=240 / keyint_min=23 / scenecut=40 / intra_refresh=0 / rc_lookahead=40 / rc=2pass / mbtree=1 / bitrate=1094 / ratetol=1.0 / qcomp=0.60 / qpmin=0 / qpmax=69 / qpstep=4 / cplxblur=20.0 / qblur=0.5 / vbv_maxrate=50000 / vbv_bufsize=62500 / nal_hrd=none / filler=0 / ip_ratio=1.40 / aq=3:1.00 Default : Да Forced : Нет Аудио Идентификатор : 2 Формат : AAC Формат/Информация : Advanced Audio Codec Профиль формата : LC Идентификатор кодека : A_AAC Продолжительность : 1 ч. 29 м. Битрейт : 76,0 Кбит/сек Каналы : 2 канала Расположение каналов : Front: L R Частота : 48,0 КГц Частота кадров : 46,875 кадров/сек (1024 SPF) Метод сжатия : С потерями Задержка видео : 9 мс. Размер потока : 48,4 Мбайт (6%) Язык : Russian Default : Да Forced : Нет Меню 00:00:00.000 : en:Chapter 1 00:05:19.986 : en:Chapter 2 00:09:28.401 : en:Chapter 3 00:15:58.499 : en:Chapter 4 00:22:16.835 : en:Chapter 5 00:25:21.269 : en:Chapter 6 00:33:30.008 : en:Chapter 7 00:36:32.231 : en:Chapter 8 00:42:44.478 : en:Chapter 9 00:46:57.397 : en:Chapter 10 00:51:52.067 : en:Chapter 11 00:55:57.854 : en:Chapter 12 01:02:11.185 : en:Chapter 13 01:08:19.929 : en:Chapter 14 01:14:06.817 : en:Chapter 15 01:24:30.982 : en:Chapter 16
[+] Скриншоты
Релиз от:

Всего файлов в раздаче: 1 
Death.Warrant.1990.ExKinoRay.mkv746.21 MB

Похожие раздачи по запросу - Ордер
2024-05-20 magnet Ордер на смерть / Death Warrant (1990) BDRemux 1080p от HD-Кинозал | D, P, P2, P1, A 22.36 GB ↑ 0 ↓ 0

Комментарии


Зарегистрируйтесь чтобы добавить комментарий
Торрент клиент
byTorrent - программа для загрузки торрент-файлов.

Скачать byTorrent.exe (1,5 МБ)

Скачать byTorrent.zip (0,6 МБ)

Поддержи torrent.by
российских рублей
(300 российских рублей это 4$)

Обратная связь rss

End game ©