↑↓torrent.by
Поиск
Логин:  Регистрация
Пароль:

Скрытая угроза / Contagion of Fear (2024) WEB-DLRip от New-Team | D

download Скачать торрент-файл   magnet Магнитная ссылка Размер: 1.46 GB Добавлен: 2024-05-08 17:00
Пиры будут получены из сети DHT
Последний сидер был замечен 2024-05-19 18:15
Скрытая угроза / Contagion of Fear Год выпуска: 2024 Выпущено: Австралия / 2Good Productions, Deadhouse Films, The Tedeschi Company Жанр: триллер Режиссер: Энцо Тедески / Enzo Tedeschi В ролях: Пол Эйр, Melissa Brattoni, Зои Каридес, Jessica Fallico, Рэйли Хилл, Николас Хоуп, Анна Хьюстон, Алан Ловелл, Ник Маричич, Гарри Павлидис О фильме: В Сиднее сходит с рельсов железнодорожный состав, власти предполагают теракт. По неизвестным причинам все выжившие после трагедии люди умирают в течение нескольких минут. Есть версия, что было применено биологическое оружие. Весь город погружается в хаос. Поможет ли кто-то остановить надвигающийся апокалипсис? Отсчет пошел… Продолжительность: 01:33:49 Перевод: Профессиональный (полное дублирование) | Официальный Субтитры: Русские (forced (hardsub)). Раздача от: Автор релиза: JNS82. Формат: AVI Качество: WEB-DLRip Видео: 720x304 (2.35:1), 25,000 fps, XviD MPEG-4 ~ kbps avg, bit/pixel, build 73 Аудио: 48 kHz, AC3 Dolby Digital, 3/2 (L,C,R,l,r) + LFE ch, ~ 384 kbps | RUS |
[+] MediaInfoОбщее Полное имя : D:TorrentsContagion.Of.Fear.2024.WEB-DLRip_от New-Team_by_JNS82.avi Формат : AVI Формат/Информация : Audio Video Interleave Размер файла : 1,46 Гбайт Продолжительность : 1 ч. 33 м. Общий поток : 2 233 Кбит/сек Программа кодирования : VirtualDubMod 1.5.10.2 (build 2540/release) Библиотека кодирования : VirtualDubMod build 2540/release Видео Идентификатор : 0 Формат : MPEG-4 Visual Профиль формата : Advanced Simple@L5 Настройки формата : BVOP1 / Custom Matrix Параметр BVOP формата : 1 Параметр QPel формата : Нет Параметр GMC формата : Без точки перехода Параметр матрицы формата : Выборочная Идентификатор кодека : XVID Идентификатор кодека/Подсказка : XviD Продолжительность : 1 ч. 33 м. Битрейт : 1 840 Кбит/сек Ширина : 720 пикселей Высота : 304 пикселя Соотношение сторон : 2,35:1 Частота кадров : 25,000 кадров/сек Цветовое пространство : YUV Субдискретизация насыщенности : 4:2:0 Битовая глубина : 8 бит Тип развёртки : Прогрессивная Метод сжатия : С потерями Бит/(Пиксели*Кадры) : 0.336 Размер потока : 1,21 Гбайт (82%) Библиотека кодирования : XviD 73 Аудио Идентификатор : 1 Формат : AC-3 Формат/Информация : Audio Coding 3 Коммерческое название : Dolby Digital Идентификатор кодека : 2000 Продолжительность : 1 ч. 33 м. Вид битрейта : Постоянный Битрейт : 384 Кбит/сек Каналы : 6 каналов Channel layout : L R C LFE Ls Rs Частота : 48,0 КГц Частота кадров : 31,250 кадров/сек (1536 SPF) Метод сжатия : С потерями Размер потока : 258 Мбайт (17%) Выравнивание : Разделение по промежуткам Продолжительность промежутка : 40 мс. (1,00 видеокадр) Время предзагрузки промежутка : 500 мс. Service kind : Complete Main

Всего файлов в раздаче: 1 
Contagion.Of.Fear.2024.WEB-DLRip_от New-Team_by_JNS82.avi1.46 GB

Похожие раздачи по запросу - Скрытая
2024-05-08 magnet Скрытая угроза / Contagion of Fear (2024) WEB-DL 1080p | D 3.85 GB ↑ 0 ↓ 0
2024-04-18 magnet Скрытая сеть / Ukryta siec / The Hidden Web (2023) WEB-DL 1080p от JNS82 | L 6.04 GB ↑ 0 ↓ 0

Комментарии


Зарегистрируйтесь чтобы добавить комментарий
Торрент клиент
byTorrent - программа для загрузки торрент-файлов.

Скачать byTorrent.exe (1,5 МБ)

Скачать byTorrent.zip (0,6 МБ)

Поддержи torrent.by
российских рублей
(300 российских рублей это 4$)

Обратная связь rss

End game ©