↑↓torrent.by
Поиск
Логин:  Регистрация
Пароль:

Я знаю, кто тебя убил / Дело Германа [S01] (2024) WEBRip 720p от ExKinoRay

download Скачать торрент-файл   magnet Магнитная ссылка Размер: 7.06 GB Добавлен: 2024-05-08 17:00
Пиры будут получены из сети DHT
Последний сидер был замечен 2024-05-17 21:34
Информация о фильме Название: Я знаю, кто тебя убил (Дело Германа) Год выхода: 2024 Жанр: Детектив, триллер, мистика Режиссер: Софья Райзман В ролях: Александр Яценко, Юлия Снигирь, Евгения Симонова, Михаил Тройник, Ольга Озоллапиня, Александр Ильин мл., Мария Смольникова, Елизавета Запорожец, Мария Карпова, Агния Кузнецова О фильме: Трехлетняя девочка похищена в московском цирке. Похитителю не нужен выкуп, им движет жажда мести. Он заставит родителей страдать так, как страдает сам, лишившись единственного близкого человека. Они так и не узнают, кто их наказал. Чтобы понять, за что он мстит, нужно отправиться в прошлое. Страна: Россия Студия: Кинокомпания "Киностудия КИТ", "НМГ Студия" Язык: Русский Файл Формат: MKV Качество: WEBRip 720p Видео: MPEG-4 AVC, ~ 2500 Кбит/с, 1280x640, 25 кадр/с Аудио: Русский, AC3, 2 ch, 192 Кбит/с/ RUS Субтитры: Нет Продолжительность: 8 x ~ 00:43:00 Реклама: Отсутствует
[+] МИ General Unique ID : 216557506818938954077567027110358463325 (0xA2EB756DC9166446399B3021C642B35D) Complete name : G:Ya.znayu.kto.tebya.ubil.S01.2024.WEB-DL.720p.ExKinoRayYa.znayu.kto.tebya.ubil.S01.E01.2024.WEB-DL.720p.ExKinoRay.mkv Format : Matroska Format version : Version 4 File size : 844 MiB Duration : 43 min 47 s Overall bit rate : 2 695 kb/s Encoded date : UTC 2024-05-01 00:05:36 Writing application : mkvmerge v56.1.0 ('My Friend') 64-bit Writing library : libebml v1.4.2 + libmatroska v1.6.4 Video ID : 1 Format : AVC Format/Info : Advanced Video Codec Format profile : High@L4.1 Format settings : CABAC / 9 Ref Frames Format settings, CABAC : Yes Format settings, Reference frames : 9 frames Codec ID : V_MPEG4/ISO/AVC Duration : 43 min 47 s Bit rate : 2 500 kb/s Width : 1 280 pixels Height : 640 pixels Display aspect ratio : 2.000 Frame rate mode : Constant Frame rate : 25.000 FPS Color space : YUV Chroma subsampling : 4:2:0 Bit depth : 8 bits Scan type : Progressive Bits/(Pixel*Frame) : 0.122 Stream size : 783 MiB (93%) Writing library : x264 core 146 r2538 121396c Encoding settings : cabac=1 / ref=9 / deblock=1:-3:-3 / analyse=0x3:0x113 / me=umh / subme=11 / psy=1 / psy_rd=1.00:0.02 / mixed_ref=1 / me_range=32 / chroma_me=1 / trellis=2 / 8x8dct=1 / cqm=0 / deadzone=21,11 / fast_pskip=1 / chroma_qp_offset=-3 / threads=24 / lookahead_threads=10 / sliced_threads=0 / nr=0 / decimate=0 / interlaced=0 / bluray_compat=0 / constrained_intra=0 / bframes=10 / b_pyramid=2 / b_adapt=2 / b_bias=0 / direct=3 / weightb=1 / open_gop=0 / weightp=2 / keyint=250 / keyint_min=25 / scenecut=40 / intra_refresh=0 / rc_lookahead=60 / rc=2pass / mbtree=1 / bitrate=2500 / ratetol=1.0 / qcomp=0.60 / qpmin=0 / qpmax=69 / qpstep=4 / cplxblur=20.0 / qblur=0.5 / vbv_maxrate=14000 / vbv_bufsize=14000 / nal_hrd=none / filler=0 / ip_ratio=1.40 / aq=3:1.40 Language : Russian Default : Yes Forced : No Color range : Limited Color primaries : BT.709 Transfer characteristics : BT.709 Matrix coefficients : BT.709 Audio ID : 2 Format : AC-3 Format/Info : Audio Coding 3 Commercial name : Dolby Digital Codec ID : A_AC3 Duration : 43 min 47 s Bit rate mode : Constant Bit rate : 192 kb/s Channel(s) : 2 channels Channel layout : L R Sampling rate : 48.0 kHz Frame rate : 31.250 FPS (1536 SPF) Compression mode : Lossy Stream size : 60.1 MiB (7%) Language : Russian Service kind : Complete Main Default : Yes Forced : No
[+] Скриншоты
Релиз от:

Всего файлов в раздаче: 8 
Ya.znayu.kto.tebya.ubil.S01.E01.2024.WEB-DL.720p.ExKinoRay.mkv844.05 MB
Ya.znayu.kto.tebya.ubil.S01.E02.2024.WEB-DL.720p.ExKinoRay.mkv919.45 MB
Ya.znayu.kto.tebya.ubil.S01.E03.2024.WEB-DL.720p.ExKinoRay.mkv923.16 MB
Ya.znayu.kto.tebya.ubil.S01.E04.2024.WEB-DL.720p.ExKinoRay.mkv916.99 MB
Ya.znayu.kto.tebya.ubil.S01.E05.2024.WEB-DL.720p.ExKinoRay.mkv915.75 MB
Ya.znayu.kto.tebya.ubil.S01.E06.2024.WEB-DL.720p.ExKinoRay.mkv877.54 MB
Ya.znayu.kto.tebya.ubil.S01.E07.2024.WEB-DL.720p.ExKinoRay.mkv838.91 MB
Ya.znayu.kto.tebya.ubil.S01.E08.2024.WEB-DL.720p.ExKinoRay.mkv997.26 MB

Похожие раздачи по запросу - знаю
2024-05-12 magnet Я знаю, кто тебя убил / Дело Германа [S01] (2024) WEBRip-AVC от Generalfilm | КПК 1.66 GB ↑ 0 ↓ 0
2024-05-09 magnet Я знаю, кто тебя убил / Дело Германа [S01] (2024) WEBRip от Files-x 4.64 GB ↑ 0 ↓ 0
2024-05-08 magnet Я знаю, кто тебя убил / Дело Германа [S01] (2024) WEBRip-AVC от Files-x 4.70 GB ↑ 0 ↓ 0
2024-05-08 magnet Я знаю, кто тебя убил [S01] (2024) WEBRip 1080p 10.55 GB ↑ 0 ↓ 0
2024-05-07 magnet Я знаю, кто тебя убил / Дело Германа [01х01-04 из 08] (2024) WEBRip-AVC от Generalfilm | КПК 847.45 MB ↑ 0 ↓ 0
2024-05-02 magnet Я знаю, кто тебя убил / Дело Германа [01х01-04 из 08] (2024) WEBRip 720p от ExKinoRay 3.52 GB ↑ 0 ↓ 0
2024-05-01 magnet Я знаю, кто тебя убил / Дело Германа [01-04 из 08] (2024) WEBRip от Files-x 2.31 GB ↑ 0 ↓ 0

Комментарии


Зарегистрируйтесь чтобы добавить комментарий
Торрент клиент
byTorrent - программа для загрузки торрент-файлов.

Скачать byTorrent.exe (1,5 МБ)

Скачать byTorrent.zip (0,6 МБ)

Поддержи torrent.by
российских рублей
(300 российских рублей это 4$)

Обратная связь rss

End game ©