↑↓torrent.by
Поиск
Логин:  Регистрация
Пароль:

Чикатило / Тень Чикатило [03x01-06 из 08] (2024) WEBRip-AVC от ExKinoRay

download Скачать торрент-файл   magnet Магнитная ссылка Размер: 4.66 GB Добавлен: 2024-05-09 05:00
Пиры будут получены из сети DHT
Последний сидер был замечен 2024-05-15 21:55
Информация о фильме Название: Тень Чикатило (Чикатило) Год выхода: 2024 Жанр: Триллер, детектив, драма Режиссер: Сарик Андреасян, Давид Дадунашвили В ролях: Дмитрий Нагиев, Константин Лавроненко, Дмитрий Власкин, Юлия Афанасьева, Олег Каменщиков, Николай Козак, Евгений Шириков, Иван Федотов, Карен Бадалов О фильме: Из-за присущей ему хитрости, изворотливости и доступа к милицейским архивам и базам данных Попцову удается в течение многих лет избегать наказания, наводя ужас на всю Иркутскую область. Он постепенно превращается в полумистического персонажа, неуловимого демона, от которого нет спасения. И все же оперативники во главе с Ковалевым, пройдя через череду сложных жизненных ситуаций, выйдут на след убийцы, остановив страшный конвейер смерти. Страна: Россия Студия: студия К.Б.А. Язык: Русский Формат: MKV Качество: WEBRip-AVC Видео: MPEG-4 AVC, 720x302, 25.000 fps, 1450 Kbps, 0.326 bit/pixel Аудио №1: 48 kHz, AC3, 3/2 (L,C,R,l,r) + LFE ch, ~384.00 kbps avg (с цензурой) RUS Аудио №2: 48 kHz, AC3, 3/2 (L,C,R,l,r) + LFE ch, ~384.00 kbps avg (без цензуры, 18+) Присутствует ненормативная лексика Продолжительность: 6 x ~ 00:50:00 Субтитры: Русские (Full (Enigma))
[+] МИGeneral Unique ID : 243395619022488783483012643187453680042 (0xB71C4A859521A07F90FC844FCE0D59AA) Complete name : D:TenjChikatilo.S01.2024.WEB-DL.AVC.ExKinoRayTenjChikatilo.S01.E01.2024.WEB-DL.AVC.ExKinoRay.mkv Format : Matroska Format version : Version 4 / Version 2 File size : 886 MiB Duration : 55 min Overall bit rate : 2 220 kb/s Movie name : Тень Чикатило 02 (2024) from ExKinoRay Encoded date : UTC 2024-04-13 23:40:47 Writing application : mkvmerge v7.6.0 ('Garden of Dreams') 32bit built on Feb 11 2015 00:18:47 Writing library : libebml v1.3.1 + libmatroska v1.4.2 Video ID : 1 Format : AVC Format/Info : Advanced Video Codec Format profile : High@L4.1 Format settings, CABAC : Yes Format settings, ReFrames : 10 frames Codec ID : V_MPEG4/ISO/AVC Duration : 55 min Bit rate : 1 450 kb/s Width : 720 pixels Height : 302 pixels Display aspect ratio : 2.40:1 Frame rate mode : Constant Frame rate : 25.000 FPS Color space : YUV Chroma subsampling : 4:2:0 Bit depth : 8 bits Scan type : Progressive Bits/(Pixel*Frame) : 0.267 Stream size : 579 MiB (65%) Writing library : x264 core 164 r3107+58M ae98796 t_mod_New Encoding settings : cabac=1 / ref=10 / deblock=1:-2:-2 / analyse=0x3:0x133 / me=umh / subme=10 / psy=1 / fade_compensate=0.00 / psy_rd=1.00:0.00 / mixed_ref=1 / me_range=32 / chroma_me=1 / trellis=2 / 8x8dct=1 / cqm=0 / deadzone=21,11 / fast_pskip=0 / chroma_qp_offset=-2 / threads=9 / lookahead_threads=2 / sliced_threads=0 / nr=0 / decimate=0 / interlaced=0 / bluray_compat=0 / constrained_intra=0 / fgo=0 / bframes=10 / b_pyramid=2 / b_adapt=2 / b_bias=0 / direct=3 / weightb=1 / open_gop=0 / weightp=2 / keyint=250 / keyint_min=25 / scenecut=40 / intra_refresh=0 / rc=2pass / mbtree=0 / bitrate=1450 / ratetol=1.0 / qcomp=0.60 / qpmin=0:0:0 / qpmax=69:69:69 / qpstep=4 / cplxblur=20.0 / qblur=0.5 / ip_ratio=1.40 / pb_ratio=1.30 / aq=1:1.00 / aq-sensitivity=10.00 / aq-factor=1.00:1.00:1.00 / aq2=0 / aq3=0 Default : Yes Forced : No Audio #1 ID : 2 Format : AC-3 Format/Info : Audio Coding 3 Mode extension : CM (complete main) Format settings, Endianness : Big Codec ID : A_AC3 Duration : 55 min Bit rate mode : Constant Bit rate : 384 kb/s Channel(s) : 6 channels Channel positions : Front: L C R, Side: L R, LFE Sampling rate : 48.0 kHz Frame rate : 31.250 FPS (1536 spf) Compression mode : Lossy Stream size : 153 MiB (17%) Language : Russian Default : Yes Forced : No Audio #2 ID : 3 Format : AC-3 Format/Info : Audio Coding 3 Mode extension : CM (complete main) Format settings, Endianness : Big Codec ID : A_AC3 Duration : 55 min Bit rate mode : Constant Bit rate : 384 kb/s Channel(s) : 6 channels Channel positions : Front: L C R, Side: L R, LFE Sampling rate : 48.0 kHz Frame rate : 31.250 FPS (1536 spf) Compression mode : Lossy Stream size : 153 MiB (17%) Title : 18+ Language : Russian Default : No Forced : No Text ID : 4 Format : UTF-8 Codec ID : S_TEXT/UTF8 Codec ID/Info : UTF-8 Plain Text Duration : 53 min Bit rate : 111 b/s Count of elements : 975 Stream size : 43.5 KiB (0%) Title : Full (Enigma) Language : Russian Default : No Forced : No
Релиз от: Автор релиза:

Всего файлов в раздаче: 6 
TenjChikatilo.S01.E01.2024.WEB-DL.AVC.ExKinoRay.mkv886.26 MB
TenjChikatilo.S01.E02.2024.WEB-DL.AVC.ExKinoRay.mkv596.78 MB
TenjChikatilo.S01.E03.2024.WEB-DL.AVC.ExKinoRay.mkv799.55 MB
TenjChikatilo.S01.E04.2024.WEB-DL.AVC.ExKinoRay.mkv813.29 MB
TenjChikatilo.S01.E05.2024.WEB-DL.AVC.ExKinoRay.mkv819.09 MB
TenjChikatilo.S01.E06.2024.WEB-DL.AVC.ExKinoRay.mkv861.25 MB

Похожие раздачи по запросу - Чикатило
2024-05-17 magnet Чикатило / Тень Чикатило [03x01-07 из 08] (2024) WEBRip-HEVC 2160p | 4K | SDR 30.80 GB ↑ 0 ↓ 0
2024-05-16 magnet Чикатило / Тень Чикатило [03х01-07 из 08] (2024) WEBRip-AVC от Files-х 5.83 GB ↑ 1 ↓ 1
2024-05-16 magnet Чикатило / Тень Чикатило [03х01-07 из 08] (2024) WEBRip от Files-х 5.64 GB ↑ 0 ↓ 1
2024-05-16 magnet Чикатило / Тень Чикатило [03x01-07 из 08] (2024) WEBRip 1080p от ExKinoRay 15.92 GB ↑ 0 ↓ 0
2024-05-16 magnet Чикатило / Тень Чикатило [03x01-07 из 08] (2024) WEBRip 720p от ExKinoRay 11.28 GB ↑ 0 ↓ 0
2024-05-16 magnet Чикатило / Тень Чикатило [03x01-07 из 08] (2024) WEBRip-AVC от ExKinoRay 5.42 GB ↑ 0 ↓ 0
2024-05-16 magnet Тень Чикатило / Серии: 1-7 из 8 [2023, триллер, детектив, драма, WEBRip-AVC] от Aleksan55 5.00 GB ↑ 0 ↓ 0

Комментарии


Зарегистрируйтесь чтобы добавить комментарий
Торрент клиент
byTorrent - программа для загрузки торрент-файлов.

Скачать byTorrent.exe (1,5 МБ)

Скачать byTorrent.zip (0,6 МБ)

Поддержи torrent.by
российских рублей
(300 российских рублей это 4$)

Обратная связь rss

End game ©