↑↓torrent.by
Поиск
Логин:  Регистрация
Пароль:

Костолом / Ruthless (2023) BDRemux 1080p от селезень | D | Leff Sound | КинопоискHD

download Скачать торрент-файл   magnet Магнитная ссылка Размер: 21.17 GB Добавлен: 2024-05-09 05:00
Пиры будут получены из сети DHT
Последний сидер был замечен 2024-05-16 22:22
Информация о фильме Название: Костолом Оригинальное название: Ruthless Год выхода: 2023 Жанр: боевик, триллер Режиссер: Арт Камачо В ролях: Дермот Малруни, Джефф Фэйи, Ману Интирэйми, Тексас Бэттл, Мелисса Диас, Анджелика ДеЧавес, Маурисио Мендоса, Тонанцин Эспарса, Нико Фостер, Кесия Роблз О фильме: В жизни Гарри произошла трагедия: его дочь была похищена и убита. Разочаровавшись в правосудии, он решает действовать самостоятельно. Гарри выходит на след банды, связанной с похищениями девушек, и собирается мстить. А методы у него жесткие - сначала ломает кости, потом задает вопросы. Страна: США Студия: Al Bravo Films, AXI-ON, BondIt, Premiere Entertainment Group, Revisilagi Vfx Studio Продолжительность: 01:32:45 Перевод: Дублированный | Leff Sound - КинопоискHD Субтитры: Русские (Full), английские Файл Формат: Matroska Качество: BDRemux 1080p Видео: MPEG-4 AVC, 30.0 Mb/s, 1920x1080 at 23.976 fps Аудио 1: AC3, 6 ch, ~448 kbps - | Русский | Аудио 2: E-AC3, 6 ch, ~448 kbps - | Русский | Аудио 3: DTS-HD MA, 6 ch, 1778 kbps - | Английский | Формат субтитров: softsub (SRT)
[+] M/IGeneral Unique ID : 227151676906575113178316206246496111809 (0xAAE3D25778CC3B8FF8EB3F1A3D510CC1) Complete name : H:VideoHRuthless.2023.BDREMUX.1080p.seleZen.mkv Format : Matroska Format version : Version 4 File size : 21.2 GiB Duration : 1 h 32 min Overall bit rate mode : Variable Overall bit rate : 32.7 Mb/s Frame rate : 23.976 FPS Movie name : Ruthless (2023) from seleZen Encoded date : 2024-05-08 18:17:02 UTC Writing application : mkvmerge v80.0 ('Roundabout') 64-bit Writing library : libebml v1.4.4 + libmatroska v1.7.1 Video ID : 1 ID in the original source m : 4113 (0x1011) Format : AVC Format/Info : Advanced Video Codec Format profile : High@L4.1 Format settings : CABAC / 3 Ref Frames Format settings, CABAC : Yes Format settings, Reference : 3 frames Format settings, Slice coun : 4 slices per frame Codec ID : V_MPEG4/ISO/AVC Duration : 1 h 32 min Bit rate mode : Variable Bit rate : 30.0 Mb/s Maximum bit rate : 35.0 Mb/s Width : 1 920 pixels Height : 1 080 pixels Display aspect ratio : 16:9 Frame rate mode : Constant Frame rate : 23.976 (24000/1001) FPS Color space : YUV Chroma subsampling : 4:2:0 Bit depth : 8 bits Scan type : Progressive Bits/(Pixel*Frame) : 0.603 Stream size : 19.4 GiB (92%) Language : English Default : Yes Forced : No Original source medium : Blu-ray Audio #1 ID : 2 Format : AC-3 Format/Info : Audio Coding 3 Commercial name : Dolby Digital Codec ID : A_AC3 Duration : 1 h 32 min Bit rate mode : Constant Bit rate : 448 kb/s Channel(s) : 6 channels Channel layout : L R C LFE Ls Rs Sampling rate : 48.0 kHz Frame rate : 31.250 FPS (1536 SPF) Compression mode : Lossy Stream size : 297 MiB (1%) Title : Dub
Релиз: Присоединяйся к: Кликай на баннеры.

Всего файлов в раздаче: 1 
Ruthless.2023.BDREMUX.1080p.seleZen.mkv21.17 GB

Похожие раздачи по запросу - Костолом
2024-05-10 magnet Костолом / Ruthless (2023) BDRip 1080p от Generalfilm | D 5.50 GB ↑ 0 ↓ 0
2024-05-09 magnet Костолом / Ruthless (2023) BDRip 1080p от селезень | D | Leff Sound | КинопоискHD 8.52 GB ↑ 1 ↓ 0
2024-05-09 magnet Костолом / Ruthless (2023) BDRip 1080p от New-Team | D 7.21 GB ↑ 0 ↓ 0
2024-05-09 magnet Костолом / Ruthless (2023) BDRip 720p от DoMiNo & селезень | D | Leff Sound | КинопоискHD 4.45 GB ↑ 0 ↓ 0
2024-05-07 magnet Костолом / Ruthless (2023) BDRip от New-Team | D 1.46 GB ↑ 0 ↓ 0
2024-01-05 magnet Костолом / Ruthless (2023) WEB-DLRip от New-Team | D 1.46 GB ↑ 0 ↓ 0

Кто качает (только для создателя раздачи и модераторов): Локальные пиры отсутствуют

Комментарии


Зарегистрируйтесь чтобы добавить комментарий
Торрент клиент
byTorrent - программа для загрузки торрент-файлов.

Скачать byTorrent.exe (1,5 МБ)

Скачать byTorrent.zip (0,6 МБ)

Поддержи torrent.by
российских рублей
(300 российских рублей это 4$)

Обратная связь rss

End game ©