↑↓torrent.by
Поиск
Логин:  Регистрация
Пароль:

Костолом / Ruthless (2023) BDRip 1080p от селезень | D | Leff Sound | КинопоискHD

download Скачать торрент-файл   magnet Магнитная ссылка Размер: 8.52 GB Добавлен: 2024-05-09 05:00
Пиры будут получены из сети DHT
Последний сидер был замечен 2024-05-27 18:17
Информация о фильме Название: Костолом Оригинальное название: Ruthless Год выхода: 2023 Жанр: боевик, триллер Режиссер: Арт Камачо В ролях: Дермот Малруни, Джефф Фэйи, Ману Интирэйми, Тексас Бэттл, Мелисса Диас, Анджелика ДеЧавес, Маурисио Мендоса, Тонанцин Эспарса, Нико Фостер, Кесия Роблз О фильме: В жизни Гарри произошла трагедия: его дочь была похищена и убита. Разочаровавшись в правосудии, он решает действовать самостоятельно. Гарри выходит на след банды, связанной с похищениями девушек, и собирается мстить. А методы у него жесткие - сначала ломает кости, потом задает вопросы. Страна: США Студия: Al Bravo Films, AXI-ON, BondIt, Premiere Entertainment Group, Revisilagi Vfx Studio Продолжительность: 01:32:45 Перевод: Дублированный | Leff Sound - КинопоискHD Субтитры: Русские (Full), английские Файл Формат: Matroska Качество: BDRip 1080p Видео: 1920x804 at 23.976 fps, x264@L4.1, ~11600 kbps Аудио 1: AC3, 6 ch, ~448 kbps - | Русский | Аудио 2: E-AC3, 6 ch, ~448 kbps - | Русский | Аудио 3: AC3, 6 ch, ~640 kbps - | Английский | Формат субтитров: softsub (SRT)
[+] M/Ix264 : frame I:952 Avg QP:16.00 size:157085 x264 : frame P:24681 Avg QP:17.03 size:104831 x264 : frame B:107816 Avg QP:18.94 size: 49510 x264 : consecutive B-frames: 1.6% 1.0% 3.6% 6.6% 12.3% 53.4% 12.8% 4.8% 2.7% 1.2% General Unique ID : 288630203635472493147581715358003505679 (0xD92427BB6C8F40908498CCD122BC2A0F) Complete name : H:VideoHRuthless.2023.BDRip.1080p.seleZen.mkv Format : Matroska Format version : Version 4 File size : 8.52 GiB Duration : 1 h 32 min Overall bit rate : 13.1 Mb/s Frame rate : 23.976 FPS Movie name : Ruthless (2023) from seleZen Encoded date : 2024-05-08 19:12:32 UTC Writing application : mkvmerge v80.0 ('Roundabout') 64-bit Writing library : libebml v1.4.4 + libmatroska v1.7.1 Video ID : 1 Format : AVC Format/Info : Advanced Video Codec Format profile : High@L4.1 Format settings : CABAC / 5 Ref Frames Format settings, CABAC : Yes Format settings, Reference : 5 frames Codec ID : V_MPEG4/ISO/AVC Duration : 1 h 32 min Bit rate : 11.6 Mb/s Width : 1 920 pixels Height : 804 pixels Display aspect ratio : 2.39:1 Frame rate mode : Constant Frame rate : 23.976 (24000/1001) FPS Color space : YUV Chroma subsampling : 4:2:0 Bit depth : 8 bits Scan type : Progressive Bits/(Pixel*Frame) : 0.314 Stream size : 7.52 GiB (88%) Writing library : x264 core 164 r3164 seleZen Encoding settings : cabac=1 / ref=5 / deblock=1:-2:-2 / analyse=0x3:0x133 / me=umh / subme=10 / psy=1 / psy_rd=1.02:0.04 / mixed_ref=1 / me_range=32 / chroma_me=1 / trellis=2 / 8x8dct=1 / cqm=0 / deadzone=21,11 / fast_pskip=0 / chroma_qp_offset=-3 / threads=25 / lookahead_threads=4 / sliced_threads=0 / nr=0 / decimate=0 / interlaced=0 / bluray_compat=0 / constrained_intra=0 / bframes=9 / b_pyramid=2 / b_adapt=2 / b_bias=0 / direct=1 / weightb=1 / open_gop=0 / weightp=2 / keyint=240 / keyint_min=23 / scenecut=40 / intra_refresh=0 / rc_lookahead=60 / rc=crf / mbtree=0 / crf=18.6 / qcomp=0.60 / qpmin=0 / qpmax=51 / qpstep=4 / vbv_maxrate=50000 / vbv_bufsize=62500 / crf_max=0.0 / nal_hrd=none / filler=0 / ip_ratio=1.40 / pb_ratio=1.30 / aq=3:0.80 Language : English Default : Yes Forced : No Audio #1 ID : 2 Format : AC-3 Format/Info : Audio Coding 3 Commercial name : Dolby Digital Codec ID : A_AC3 Duration : 1 h 32 min Bit rate mode : Constant Bit rate : 448 kb/s Channel(s) : 6 channels Channel layout : L R C LFE Ls Rs Sampling rate : 48.0 kHz Frame rate : 31.250 FPS (1536 SPF) Compression mode : Lossy Stream size : 297 MiB (3%) Title : Dub
Релиз: Присоединяйся к: Кликай на баннеры.

Всего файлов в раздаче: 1 
Ruthless.2023.BDRip.1080p.seleZen.mkv8.52 GB

Похожие раздачи по запросу - Костолом
2024-05-10 magnet Костолом / Ruthless (2023) BDRip 1080p от Generalfilm | D 5.50 GB ↑ 0 ↓ 0
2024-05-09 magnet Костолом / Ruthless (2023) BDRemux 1080p от селезень | D | Leff Sound | КинопоискHD 21.17 GB ↑ 0 ↓ 0
2024-05-09 magnet Костолом / Ruthless (2023) BDRip 720p от DoMiNo & селезень | D | Leff Sound | КинопоискHD 4.45 GB ↑ 0 ↓ 0
2024-05-07 magnet Костолом / Ruthless (2023) BDRip от New-Team | D 1.46 GB ↑ 0 ↓ 0
2024-01-05 magnet Костолом / Ruthless (2023) WEB-DLRip от New-Team | D 1.46 GB ↑ 0 ↓ 0

Комментарии


Зарегистрируйтесь чтобы добавить комментарий
Торрент клиент
byTorrent - программа для загрузки торрент-файлов.

Скачать byTorrent.exe (1,5 МБ)

Скачать byTorrent.zip (0,6 МБ)

Поддержи torrent.by
российских рублей
(300 российских рублей это 4$)

Обратная связь rss

End game ©