↑↓torrent.by
Поиск
Логин:  Регистрация
Пароль:

Оптом дешевле 2 / Cheaper by the Dozen 2 (2005) BDRip 720p | D

download Скачать торрент-файл   magnet Магнитная ссылка Размер: 3.14 GB Добавлен: 2024-05-09 11:00
Пиры будут получены из сети DHT
Последний сидер был замечен 2024-05-09 11:00
Название: Оптом дешевле 2 Оригинальное название: Cheaper by the Dozen 2 Год выпуска: 2005 Страна: США, Канада Жанр: комедия, приключения, семейный Продолжительность: 01:33:54 Перевод: Дублированный Режиссёр: Шон Леви, Адам Шенкман В ролях: Стив Мартин, Александер Конти, Блэйк Вудрафф, Бонни Хант, Джейкоб Смит, Джейми Кинг, Кармен Электра, Кевин Шмидт, Лилиана Мьюми, Морган Йорк, Пайпер Перабо, Том Уэллинг, Тейлор Лотнер Описание: Семейство Бейкеров планирует провести беззаботные летние каникулы на природе. Однако на отдыхе они встречаются с другой, не менее крупной, семейкой. Детей в кадре, таким образом, становится в два раза больше! Между ними вспыхивает здоровое соперничество и конкуренция, сулящие им немало проблем... Качество: BDRip 720p Сравнение с исходником Формат: MKV Видео: MPEG-4 AVC, 3856 Кбит/с, 1280x544, 23,976 кадра/с Аудио 1: русский, AC3, 384 kbps, 6 ch, 48 kHz Аудио 2: английский, AC3, 448 kbps, 6 ch, 48 kHz Субтитры 1: русские Субтитры 2: английские
[+] Инфо-файлОбщее Уникальный идентификатор : 171511536638187578663219943741296329404 (0x8107EBA0C59F0CDA915A4E2CCEC5C2BC) Полное имя : D:VideoОптом дешевле 2.2005.BDRip.720p.mkv Формат : Matroska Версия формата : Version 4 / Version 2 Размер файла : 3,14 Гбайт Продолжительность : 1 ч. 33 м. Общий поток : 4783 Кбит/сек Название фильма : BDRip -- STarankov Дата кодирования : UTC 2015-06-30 13:34:00 Программа кодирования : mkvmerge v7.9.0 ('Birds') 64bit Библиотека кодирования : libebml v1.3.1 + libmatroska v1.4.2 _STATISTICS_WRITING_APP : mkvmerge v7.9.0 ('Birds') 64bit _STATISTICS_WRITING_DATE_UTC : 2015-06-30 13:34:00 _STATISTICS_TAGS : BPS DURATION NUMBER_OF_FRAMES NUMBER_OF_BYTES DURATION : 01:32:40.512000000 NUMBER_OF_FRAMES : 1810 NUMBER_OF_BYTES : 58031 Видео Идентификатор : 1 Формат : AVC Формат/Информация : Advanced Video Codec Профиль формата : High@L4.1 Параметр CABAC формата : Да Параметр ReFrames формата : 9 кадров Идентификатор кодека : V_MPEG4/ISO/AVC Продолжительность : 1 ч. 33 м. Битрейт : 3856 Кбит/сек Ширина : 1280 пикселей Высота : 544 пикселя Соотношение сторон : 2,35:1 Режим частоты кадров : Постоянный Частота кадров : 23,976 кадра/сек Цветовое пространство : YUV Субдискретизация насыщенности : 4:2:0 Битовая глубина : 8 бит Тип развёртки : Прогрессивная Бит/(Пиксели*Кадры) : 0.231 Размер потока : 2,53 Гбайт (81%) Библиотека кодирования : x264 core 146 r2538 121396c Настройки программы : cabac=1 / ref=9 / deblock=1:-1:-1 / analyse=0x3:0x113 / me=umh / subme=10 / psy=1 / psy_rd=1.00:0.15 / mixed_ref=1 / me_range=32 / chroma_me=1 / trellis=2 / 8x8dct=1 / cqm=0 / deadzone=21,11 / fast_pskip=1 / chroma_qp_offset=-3 / threads=6 / lookahead_threads=1 / sliced_threads=0 / nr=0 / decimate=1 / interlaced=0 / bluray_compat=0 / constrained_intra=0 / bframes=8 / b_pyramid=2 / b_adapt=2 / b_bias=0 / direct=1 / weightb=1 / open_gop=0 / weightp=2 / keyint=230 / keyint_min=23 / scenecut=40 / intra_refresh=0 / rc_lookahead=40 / rc=crf / mbtree=0 / crf=18.5 / qcomp=0.60 / qpmin=0 / qpmax=69 / qpstep=4 / vbv_maxrate=40000 / vbv_bufsize=50000 / crf_max=0.0 / nal_hrd=none / filler=0 / ip_ratio=1.40 / pb_ratio=1.30 / aq=1:1.00 Язык : English Default : Да Forced : Нет DURATION : 01:33:54.087000000 NUMBER_OF_FRAMES : 135083 NUMBER_OF_BYTES : 2780824642 _STATISTICS_WRITING_APP : mkvmerge v7.9.0 ('Birds') 64bit _STATISTICS_WRITING_DATE_UTC : 2015-06-30 13:34:00 _STATISTICS_TAGS : BPS DURATION NUMBER_OF_FRAMES NUMBER_OF_BYTES Аудио #1 Идентификатор : 2 Формат : AC-3 Формат/Информация : Audio Coding 3 Расширение режима : CM (complete main) Параметр Endianness формата : Big Идентификатор кодека : A_AC3 Продолжительность : 1 ч. 33 м. Вид битрейта : Постоянный Битрейт : 384 Кбит/сек Каналы : 6 каналов Расположение каналов : Front: L C R, Side: L R, LFE Частота : 48,0 КГц Битовая глубина : 16 бит Метод сжатия : С потерями Размер потока : 258 Мбайт (8%) Заголовок : DUB Язык : Russian Default : Да Forced : Нет Аудио #2 Идентификатор : 3 Формат : AC-3 Формат/Информация : Audio Coding 3 Расширение режима : CM (complete main) Параметр Endianness формата : Big Идентификатор кодека : A_AC3 Продолжительность : 1 ч. 33 м. Вид битрейта : Постоянный Битрейт : 448 Кбит/сек Каналы : 6 каналов Расположение каналов : Front: L C R, Side: L R, LFE Частота : 48,0 КГц Битовая глубина : 16 бит Метод сжатия : С потерями Размер потока : 301 Мбайт (9%) Заголовок : Original Язык : English Default : Нет Forced : Нет Текст #1 Идентификатор : 4 Формат : UTF-8 Идентификатор кодека : S_TEXT/UTF8 Идентификатор кодека/Информация : UTF-8 Plain Text Заголовок : русский Язык : Russian Default : Нет Forced : Нет Текст #2 Идентификатор : 5 Формат : UTF-8 Идентификатор кодека : S_TEXT/UTF8 Идентификатор кодека/Информация : UTF-8 Plain Text Заголовок : английский Default : Нет Forced : Нет
[+] Скриншоты

Всего файлов в раздаче: 1 
Оптом дешевле 2.2005.BDRip.720p.mkv3.14 GB

Похожие раздачи по запросу - Оптом
2024-05-09 magnet Оптом дешевле 2 / Cheaper by the Dozen 2 (2005) BDRip 1080p | D 8.06 GB ↑ 0 ↓ 0
2024-05-09 magnet Оптом дешевле 2 / Cheaper by the Dozen 2 (2005) HDRip-AVC от DoMiNo | D 744.96 MB ↑ 0 ↓ 0
2024-05-09 magnet Оптом дешевле / Cheaper by the Dozen (2003) WEB-DLRip-AVC от DoMiNo | D 746.09 MB ↑ 0 ↓ 0

Кто качает (только для создателя раздачи и модераторов): Локальные пиры отсутствуют

Комментарии


Зарегистрируйтесь чтобы добавить комментарий
Торрент клиент
byTorrent - программа для загрузки торрент-файлов.

Скачать byTorrent.exe (1,5 МБ)

Скачать byTorrent.zip (0,6 МБ)

Поддержи torrent.by
российских рублей
(300 российских рублей это 4$)

Обратная связь rss

End game ©