↑↓torrent.by
Поиск
Логин:  Регистрация
Пароль:

28 панфиловцев (2016) BDRip 720p от ExKinoRay | Лицензия

download Скачать торрент-файл   magnet Магнитная ссылка Размер: 5.61 GB Добавлен: 2024-05-09 11:00
Пиры будут получены из сети DHT
Последний сидер был замечен 2024-05-19 19:44
Информация о фильме Название: 28 панфиловцев Год выпуска: 2016 Жанр: Военный, драма Режиссер: Ким Дружинин, Андрей Шальопа В ролях: Александр Устюгов, Яков Кучеревский, Азамат Нигманов, Олег Фёдоров, Алексей Морозов, Антон Кузнецов, Алексей Лонгин, Максим Белбородов, Дмитрий Мурашев, Виталий Коваленко О фильме: Осенью 1941-го года немецкие части, стоявшие возле Волоколамска, отделяло от Москвы каких-нибудь два часа по шоссе. Однако, на этом шоссе стояла 316-я стрелковая дивизия под командованием генерала И. В. Панфилова. Этот военачальник обладал настолько высоким авторитетом среди личного состава, что бойцы дивизии сами называли себя панфиловцами. А дивизию — панфиловской. Страна: Россия Студия: 28 панфиловцев, Libyan Palette Studios Продолжительность: 02:00:38 Перевод: Не требуется (русский) | Лицензия Файл Качество: BDRip (720p) Видео: MPEG-4 AVC, 4520 Кбит/с, 1280x536 Аудио: Русский (AC3, 6 ch, 640 Кбит/с), (DTS, 6 ch, 1509 Кбит/с)
[+] MIGeneral Unique ID : 243113872777099662136754180911725579099 (0xB6E6075C02FC234D8E99DAEF25A88B5B) Complete name : D:Panfilovcy.2016.BDRip.720p.ExKinoRay.mkv Format : Matroska Format version : Version 2 File size : 5.61 GiB Duration : 2 h 0 min Overall bit rate : 6 661 kb/s Movie name : Панфиловцы (2016) from ExKinoRay Encoded date : UTC 2017-01-28 04:52:32 Writing application : mkvmerge v7.6.0 ('Garden of Dreams') 32bit built on Feb 11 2015 00:18:47 Writing library : libebml v1.3.1 + libmatroska v1.4.2 Video ID : 1 Format : AVC Format/Info : Advanced Video Codec Format profile : High@L4.1 Format settings, CABAC : Yes Format settings, ReFrames : 12 frames Codec ID : V_MPEG4/ISO/AVC Duration : 2 h 0 min Bit rate : 4 520 kb/s Width : 1 280 pixels Height : 536 pixels Display aspect ratio : 2.40:1 Frame rate mode : Constant Frame rate : 24.000 FPS Color space : YUV Chroma subsampling : 4:2:0 Bit depth : 8 bits Scan type : Progressive Bits/(Pixel*Frame) : 0.275 Stream size : 3.69 GiB (66%) Title : Enigma Writing library : x264 core 144 r2525 40bb568 Encoding settings : cabac=1 / ref=12 / deblock=1:-2:-2 / analyse=0x3:0x113 / me=umh / subme=10 / psy=1 / psy_rd=1.00:0.05 / mixed_ref=1 / me_range=32 / chroma_me=1 / trellis=2 / 8x8dct=1 / cqm=0 / deadzone=21,11 / fast_pskip=1 / chroma_qp_offset=-3 / threads=12 / lookahead_threads=3 / sliced_threads=0 / nr=0 / decimate=1 / interlaced=0 / bluray_compat=0 / constrained_intra=0 / bframes=10 / b_pyramid=2 / b_adapt=2 / b_bias=0 / direct=3 / weightb=1 / open_gop=0 / weightp=2 / keyint=240 / keyint_min=24 / scenecut=40 / intra_refresh=0 / rc_lookahead=40 / rc=2pass / mbtree=0 / bitrate=4520 / ratetol=1.0 / qcomp=0.60 / qpmin=0 / qpmax=51 / qpstep=4 / cplxblur=20.0 / qblur=0.5 / vbv_maxrate=50000 / vbv_bufsize=62500 / nal_hrd=none / filler=0 / ip_ratio=1.40 / pb_ratio=1.30 / aq=1:1.00 Language : English Default : Yes Forced : No Color range : Limited Color primaries : BT.709 Transfer characteristics : BT.709 Matrix coefficients : BT.709 Audio #1 ID : 2 Format : AC-3 Format/Info : Audio Coding 3 Mode extension : CM (complete main) Format settings, Endianness : Big Codec ID : A_AC3 Duration : 2 h 0 min Bit rate mode : Constant Bit rate : 640 kb/s Channel(s) : 6 channels Channel positions : Front: L C R, Side: L R, LFE Sampling rate : 48.0 kHz Frame rate : 31.250 FPS (1536 spf) Compression mode : Lossy Stream size : 552 MiB (10%) Title : Лицензия Language : Russian Default : Yes Forced : No Audio #2 ID : 3 Format : DTS Format/Info : Digital Theater Systems Mode : 16 Format settings, Endianness : Big Codec ID : A_DTS Duration : 2 h 0 min Bit rate mode : Constant Bit rate : 1 509 kb/s Channel(s) : 6 channels Channel positions : Front: L C R, Side: L R, LFE Sampling rate : 48.0 kHz Frame rate : 93.750 FPS (512 spf) Bit depth : 24 bits Compression mode : Lossy Stream size : 1.27 GiB (23%) Title : DTS Лицензия Language : Russian Default : No Forced : No Menu 00:00:00.000 : ru:Chapter 01 00:01:24.375 : ru:Chapter 02 00:11:59.208 : ru:Chapter 03 00:26:15.791 : ru:Chapter 04 00:38:43.625 : ru:Chapter 05 00:55:16.416 : ru:Chapter 06 01:12:21.333 : ru:Chapter 07 01:25:35.500 : ru:Chapter 08 01:38:52.333 : ru:Chapter 09
[+] Скриншоты
Релиз от: Автор релиза:

Всего файлов в раздаче: 1 
Panfilovcy.2016.BDRip.720p.ExKinoRay.mkv5.61 GB

Комментарии


Зарегистрируйтесь чтобы добавить комментарий
Торрент клиент
byTorrent - программа для загрузки торрент-файлов.

Скачать byTorrent.exe (1,5 МБ)

Скачать byTorrent.zip (0,6 МБ)

Поддержи torrent.by
российских рублей
(300 российских рублей это 4$)

Обратная связь rss

End game ©