↑↓torrent.by
Поиск
Логин:  Регистрация
Пароль:

Редкая птица [01 из 04] (2024) WEB-DLRip

download Скачать торрент-файл   magnet Магнитная ссылка Размер: 640.65 MB Добавлен: 2024-05-09 11:00
Пиры будут получены из сети DHT
Последний сидер был замечен 2024-05-10 13:30
Информация о фильме Название: Редкая птица Год выхода: 2024 Жанр: Военный, мелодрама Режиссёр: Ольга Музалева В ролях: Катерина Шпица, Александр Горбатов, Екатерина Чаннова, Александра Соловьева, Евгения Лезгинцева, Анастасия Цибизова, Сергей Пускепалис, Михаил Тройник, Кирилл Гребенщиков, Дмитрий Муляр, Кирилл Запорожский, Алексей Коряков, Евгений Кошелев, Ирина Латушко, Василиса Немцова, Егор Горин, Максим Севриновский, Сергей Грузинов, Николай Сердцев, Наталья Батрак, Елена Ворончихина, Кирилл Гончаров, Никита Патуев, Алексей Весёлкин, Артем Шевченко, Илларион Маров, Владислав Кулыгин О фильме: 1943 год. Анна Петрова — боевая лётчица, которая получила тяжёлую травму. Она вернулась в тыл и работает ведущим инженером на авиационном заводе, где готовят к испытаниям новые самолеты «Кречеты». Руководство завода, не зная о последствиях её травмы, поручает Анне вместе с майором Зотовым перегнать опытный образец «Кречета» на фронт. Кроме желания одержать победу над врагом и вернуться домой с победой, Анна преследует и личную цель. Она настроена поквитаться с майором Бриггелем — немецким лётчиком, из-за которого погиб её возлюбленный. Страна: Россия Студия: ХитФильм Продакшн, МТС Медиа Продолжительность: 1 x ~ 00:48:00 Язык: Русский Премьера в Росcии: 09 мая 2024 года Цифровой релиз: 09 мая 2024 года Примечание: Без рекламы Возраст: 12+ Файл Формат: AVI Качество: WEB-DLRip Видео: XviD, ~ 1650 Кбит/с, 720x400 Звук: AC3, 2 ch, 192 Кбит/с Субтитры: Отсутствуют Семпл
[+] Скриншоты
[+] MIОбщее Полное имя : C:UsersAdminDesktopRedkaya.ptica.S01.2024.WEB-DLRipRedkaya.ptica.S01.E01.2024.WEB-DLRip.avi Формат : AVI Формат/Информация : Audio Video Interleave Размер файла : 641 Мбайт Продолжительность : 48 м. 20 с. Общий поток : 1 853 Кбит/сек Программа кодирования : Lavf59.16.100 Видео Идентификатор : 0 Формат : MPEG-4 Visual Профиль формата : Advanced Simple@L5 Настройки формата : BVOP1 / Custom Matrix Параметр BVOP формата : 1 Параметр QPel формата : Нет Параметр GMC формата : Без точки перехода Параметр матрицы формата : Выборочная Идентификатор кодека : XVID Идентификатор кодека/Подсказка : XviD Продолжительность : 48 м. 20 с. Битрейт : 1 650 Кбит/сек Ширина : 720 пикселей Высота : 400 пикселей Соотношение сторон : 16:9 Частота кадров : 25,000 кадров/сек Цветовое пространство : YUV Субдискретизация насыщенности : 4:2:0 Битовая глубина : 8 бит Тип развёртки : Прогрессивная Метод сжатия : С потерями Бит/(Пиксели*Кадры) : 0.229 Размер потока : 570 Мбайт (89%) Библиотека кодирования : XviD 69 Аудио Идентификатор : 1 Формат : AC-3 Формат/Информация : Audio Coding 3 Коммерческое название : Dolby Digital Идентификатор кодека : 2000 Продолжительность : 48 м. 20 с. Вид битрейта : Постоянный Битрейт : 192 Кбит/сек Каналы : 2 канала Channel layout : L R Частота : 48,0 КГц Частота кадров : 31,250 кадров/сек (1536 SPF) Битовая глубина : 16 бит Метод сжатия : С потерями Размер потока : 66,4 Мбайт (10%) Выравнивание : Соединение по промежуткам Продолжительность промежутка : 32 мс. (0,80 видеокадр) Service kind : Complete Main

Всего файлов в раздаче: 1 
Redkaya.ptica.S01.E01.2024.WEB-DLRip.avi640.65 MB

Похожие раздачи по запросу - Редкая
2024-05-13 magnet Редкая птица [S01] (2024) WEB-DLRip-AVC от Generalfilm | КПК 878.62 MB ↑ 0 ↓ 0
2024-05-13 magnet Редкая птица [S01] (2024) WEB-DL 720p от Files-x 5.48 GB ↑ 0 ↓ 0
2024-05-12 magnet Редкая птица [S01] (2024) WEB-DLRip-AVC от Files-x 2.43 GB ↑ 0 ↓ 0
2024-05-12 magnet Редкая птица [S01] (2024) WEB-DLRip 2.51 GB ↑ 0 ↓ 0
2024-05-12 magnet Редкая птица [01-03 из 04] (2024) WEB-DL 720p от Files-x 4.10 GB ↑ 0 ↓ 0
2024-05-12 magnet Редкая птица [S01] (2024) WEB-DL 1080p 8.57 GB ↑ 0 ↓ 0
2024-05-11 magnet Редкая птица [01-03 из 04] (2024) WEB-DLRip 1.88 GB ↑ 0 ↓ 0

Кто качает (только для создателя раздачи и модераторов): Локальные пиры отсутствуют

Комментарии


Зарегистрируйтесь чтобы добавить комментарий
Торрент клиент
byTorrent - программа для загрузки торрент-файлов.

Скачать byTorrent.exe (1,5 МБ)

Скачать byTorrent.zip (0,6 МБ)

Поддержи torrent.by
российских рублей
(300 российских рублей это 4$)

Обратная связь rss

End game ©