↑↓torrent.by
Поиск
Логин:  Регистрация
Пароль:

Кровь в обмен на пыль / Blood for Dust (2023) BDRip-AVC | D

download Скачать торрент-файл   magnet Магнитная ссылка Размер: 1.46 GB Добавлен: 2024-05-09 11:00
Пиры будут получены из сети DHT
Последний сидер был замечен 2024-05-17 21:59
Информация о фильме Название: Кровь в обмен на пыль Оригинальное название: Blood for Dust Год выхода: 2023 Жанр: Боевик, триллер, криминал Режиссер: Род Блэкхёрст В ролях: Скут Макнэри, Кит Харингтон, Джош Лукас, Итан Сапли, Нора Зеетнер, Эмбер Роуз Мейсон, Стивен Дорфф, Крис Маллинэкс, Трэвис Брюэр, Расс Тиллер О фильме: Коммивояжер Клифф ради семьи залезает в долги и стремительно идет ко дну. В отчаянной надежде он соглашается сотрудничать с Рикки, не подозревая, что именно тот перевозит. Теперь его задача - выйти сухим из воды - в бизнесе, где это еще никому не удавалось. Страна: США Студия: BondIt, Good Wizard, Gramercy Park Media, JaiD7 Pictures Продолжительность: 01:41:20 Перевод: Дублированный | СиПиАй Филмз / CPI Films Файл Формат: MKV Качество: BDRip-AVC Видео: MPEG-4 AVC, 1024x428 (2.40:1), ~ 1684 kbps, 23.976 fps Аудио: Russian: 48 kHz, AC3, 3/2 (L,C,R,l,r) + LFE ch, ~ 384 kbps Субтитры: Русские (Forced, Full), английские
[+] Скриншоты
[+] MI/x264Исходник: Blood.for.Dust.2023.BDREMUX.1080p.ExKinoRay General Unique ID : 176716302329864621900978493478224400874 (0x84F25263926B7319AD723CCCE64A11EA) Complete name : Blood.for.Dust.2023.BDRip-AVC.mkv Format : Matroska Format version : Version 4 File size : 1.46 GiB Duration : 1 h 41 min Overall bit rate : 2 063 kb/s Encoded date : UTC 2024-05-08 18:17:38 Writing application : mkvmerge v7.3.0 ('Nouages') 64bit built on Oct 22 2014 18:53:34 Writing library : libebml v1.3.0 + libmatroska v1.4.1 Video ID : 1 Format : AVC Format/Info : Advanced Video Codec Format profile : High@L4.1 Format settings : CABAC / 12 Ref Frames Format settings, CABAC : Yes Format settings, Reference frames : 12 frames Codec ID : V_MPEG4/ISO/AVC Duration : 1 h 41 min Bit rate : 1 684 kb/s Width : 1 024 pixels Height : 428 pixels Display aspect ratio : 2.40:1 Frame rate mode : Constant Frame rate : 23.976 (24000/1001) FPS Color space : YUV Chroma subsampling : 4:2:0 Bit depth : 8 bits Scan type : Progressive Bits/(Pixel*Frame) : 0.160 Stream size : 1.19 GiB (81%) Writing library : x264 core 164 r3186+62M 5e8a29f t_mod_New Encoding settings : cabac=1 / ref=12 / deblock=1:-2:-2 / analyse=0x3:0x133 / me=umh / subme=11 / psy=1 / fade_compensate=0.00 / psy_rd=1.00:0.00 / mixed_ref=1 / me_range=32 / chroma_me=1 / trellis=2 / 8x8dct=1 / cqm=0 / deadzone=21,11 / fast_pskip=0 / chroma_qp_offset=-2 / threads=12 / lookahead_threads=2 / sliced_threads=0 / nr=0 / decimate=0 / interlaced=0 / bluray_compat=0 / constrained_intra=0 / fgo=0 / bframes=9 / b_pyramid=2 / b_adapt=2 / b_bias=0 / direct=3 / weightb=1 / open_gop=0 / weightp=2 / keyint=240 / keyint_min=23 / scenecut=40 / intra_refresh=0 / rc_lookahead=60 / rc=2pass / mbtree=0 / bitrate=1684 / ratetol=1.0 / qcomp=0.60 / qpmin=0:0:0 / qpmax=51:51:51 / qpstep=4 / cplxblur=20.0 / qblur=0.5 / vbv_maxrate=50000 / vbv_bufsize=62500 / nal_hrd=none / filler=0 / ip_ratio=1.35 / pb_ratio=1.25 / aq=1:0.90 / aq-sensitivity=10.00 / aq-factor=1.00:1.00:1.00 / aq2=0 / aq3=0 Language : English Default : Yes Forced : No Audio ID : 2 Format : AC-3 Format/Info : Audio Coding 3 Commercial name : Dolby Digital Codec ID : A_AC3 Duration : 1 h 41 min Bit rate mode : Constant Bit rate : 384 kb/s Channel(s) : 6 channels Channel layout : L R C LFE Ls Rs Sampling rate : 48.0 kHz Frame rate : 31.250 FPS (1536 SPF) Compression mode : Lossy Stream size : 278 MiB (19%) Title : DUB Language : Russian Service kind : Complete Main Default : Yes Forced : No Text #1 ID : 3 Format : UTF-8 Codec ID : S_TEXT/UTF8 Codec ID/Info : UTF-8 Plain Text Duration : 1 h 31 min Bit rate : 0 b/s Count of elements : 16 Stream size : 608 Bytes (0%) Title : Forced Language : Russian Default : Yes Forced : No Text #2 ID : 4 Format : UTF-8 Codec ID : S_TEXT/UTF8 Codec ID/Info : UTF-8 Plain Text Duration : 1 h 31 min Bit rate : 52 b/s Count of elements : 804 Stream size : 35.5 KiB (0%) Title : Full Language : Russian Default : No Forced : No Text #3 ID : 5 Format : UTF-8 Codec ID : S_TEXT/UTF8 Codec ID/Info : UTF-8 Plain Text Duration : 1 h 34 min Bit rate : 40 b/s Count of elements : 930 Stream size : 28.0 KiB (0%) Title : Full Language : English Default : No Forced : No Text #4 ID : 6 Format : UTF-8 Codec ID : S_TEXT/UTF8 Codec ID/Info : UTF-8 Plain Text Duration : 1 h 40 min Bit rate : 47 b/s Count of elements : 1244 Stream size : 35.3 KiB (0%) Title : SDH Language : English Default : No Forced : No Menu 00:00:00.000 : en:Chapter 01 00:08:04.067 : en:Chapter 02 00:15:59.500 : en:Chapter 03 00:26:29.338 : en:Chapter 04 00:36:13.254 : en:Chapter 05 00:44:23.035 : en:Chapter 06 00:52:03.829 : en:Chapter 07 01:00:42.889 : en:Chapter 08 01:10:12.125 : en:Chapter 09 01:17:24.849 : en:Chapter 10 01:27:46.344 : en:Chapter 11 01:34:11.145 : en:Chapter 12 x264 : frame I:874 Avg QP:13.42 size: 58017 x264 : frame P:24796 Avg QP:15.61 size: 17864 x264 : frame B:120122 Avg QP:17.78 size: 6505

Всего файлов в раздаче: 1 
Blood.for.Dust.2023.BDRip-AVC.mkv1.46 GB

Похожие раздачи по запросу - Кровь
2024-05-14 magnet Кровь Зевса / Blood of Zeus [S02] (2024) WEB-DL 1080p от Jaskier | P 10.05 GB ↑ 0 ↓ 1
2024-05-13 magnet Кровь Зевса / Blood of Zeus [02x01-02 из 08] (2024) WEB-DL 1080p от Jaskier | P 2.59 GB ↑ 0 ↓ 0
2024-05-10 magnet Кровь / Blood (2022) BDRip-AVC от DoMiNo & селезень | D 1К1.46 GB ↑ 0 ↓ 0
2024-05-06 magnet Монти Механик - Дурная кровь (2024) FLAC 146.97 MB ↑ 0 ↓ 0
2024-05-06 magnet Кровь в обмен на пыль / Blood for Dust (2023) BDRip 1080p от New-Team | D 8.36 GB ↑ 0 ↓ 1
2024-05-06 magnet Кровь в обмен на пыль / Blood for Dust (2023) HDRip от MegaPeer | D 1.45 GB ↑ 0 ↓ 0
2024-05-06 magnet Кровь в обмен на пыль / Blood for Dust (2023) BDRip 720p от New-Team | D 4.01 GB ↑ 0 ↓ 0

Кто качает (только для создателя раздачи и модераторов): Локальные пиры отсутствуют

Комментарии


Зарегистрируйтесь чтобы добавить комментарий
Торрент клиент
byTorrent - программа для загрузки торрент-файлов.

Скачать byTorrent.exe (1,5 МБ)

Скачать byTorrent.zip (0,6 МБ)

Поддержи torrent.by
российских рублей
(300 российских рублей это 4$)

Обратная связь rss

End game ©