↑↓torrent.by
Поиск
Логин:  Регистрация
Пароль:

Ворон / The Crow (1994) BDRip 1080p от Generalfilm | P | D | JPN Remastered

download Скачать торрент-файл   magnet Магнитная ссылка Размер: 4.61 GB Добавлен: 2024-05-09 11:00
Пиры будут получены из сети DHT
Последний сидер был замечен сегодня в 09:46
Ворон / The Crow Информация о фильме Год выпуска: 1994 Страна: США Студия: Crowvision Inc., Edward R. Pressman Film, Entertainment Media Investment Corporation Жанр: фэнтези, боевик, драма, криминал Перевод:#1 Профессиональный многоголосый | ОРТ Перевод:#2 Дублированный | Хлопушка Продолжительность: 01:41:52 Субтитры: Отсутствуют Режиссер: Алекс Пройас В ролях: Брэндон Ли, Рошелль Дэвис, Эрни Хадсон, Майкл Уинкотт, Бай Лин, София Шинас, Анна Левайн-Томпсон, Дэвид Патрик Келли, Энджел Дэвид, Лоуренс Мэйсон О фильме: В ночь на Хэллоуин банда отморозков убивает рок-музыканта Эрика Дрейвена и его невесту Шелли. Спустя год Эрик восстаёт из мёртвых, чтобы покарать убийц. Качество: BDRip 1080p Формат: MKV Видео: MPEG-4 AVC, 1920x1040 (1.85:1), 23,976 fps, 6030 Kbit/s (0.126 bit/pixel) Аудио:#1 русский, AC3, 2.0, 48 kHz, 192 kbps | ОРТ Аудио:#2 русский, AC3, 2.0, 48 kHz, 256 kbps | Хлопушка Навигация по главам: есть Релиз от:
[+] ОтчетМедиаИнфо General Unique ID : 177104227099979487011922713899944042425 (0x853D088E89738E619D1FC5AD1A26DFB9) Complete name : E:GFThe.Crow.1994.BDRip.1080p.Rip.by.HardwareMining.R.G.Generalfilm.mkv Format : Matroska Format version : Version 4 File size : 4.61 GiB Duration : 1 h 41 min Overall bit rate : 6 481 kb/s Frame rate : 23.976 FPS Movie name : The.Crow.1994.BDRip.1080p.Rip.by.HardwareMining.R.G.Generalfilm Encoded date : 2024-05-07 15:31:49 UTC Writing application : mkvmerge v6.8.0 ('Theme for Great Cities') 32bit built on Mar 2 2014 21:27:07 Writing library : libebml v1.3.0 + libmatroska v1.4.1 Cover : Yes Attachments : cover.png Video ID : 1 Format : AVC Format/Info : Advanced Video Codec Format profile : High@L4.1 Format settings : CABAC / 4 Ref Frames Format settings, CABAC : Yes Format settings, Reference frames : 4 frames Codec ID : V_MPEG4/ISO/AVC Duration : 1 h 41 min Bit rate : 6 030 kb/s Width : 1 920 pixels Height : 1 040 pixels Display aspect ratio : 1.85:1 Frame rate mode : Constant Frame rate : 23.976 FPS Color space : YUV Chroma subsampling : 4:2:0 Bit depth : 8 bits Scan type : Progressive Bits/(Pixel*Frame) : 0.126 Stream size : 4.20 GiB (91%) Writing library : x264 core 130 r2273 b3065e6 Encoding settings : cabac=1 / ref=4 / deblock=1:-2:-1 / analyse=0x3:0x133 / me=umh / subme=10 / psy=1 / psy_rd=1.00:0.08 / mixed_ref=1 / me_range=32 / chroma_me=1 / trellis=2 / 8x8dct=1 / cqm=0 / deadzone=21,11 / fast_pskip=0 / chroma_qp_offset=-3 / threads=48 / lookahead_threads=8 / sliced_threads=0 / nr=0 / decimate=1 / interlaced=0 / bluray_compat=0 / constrained_intra=0 / bframes=11 / b_pyramid=2 / b_adapt=2 / b_bias=0 / direct=3 / weightb=1 / open_gop=0 / weightp=2 / keyint=250 / keyint_min=25 / scenecut=40 / intra_refresh=0 / rc=2pass / mbtree=0 / bitrate=6030 / ratetol=1.0 / qcomp=0.60 / qpmin=0 / qpmax=69 / qpstep=4 / cplxblur=20.0 / qblur=0.5 / ip_ratio=1.40 / pb_ratio=1.30 / aq=2:1.00 Language : English Default : Yes Forced : No Color range : Limited Color primaries : BT.709 Transfer characteristics : BT.709 Matrix coefficients : BT.709 Audio #1 ID : 2 Format : AC-3 Format/Info : Audio Coding 3 Commercial name : Dolby Digital Codec ID : A_AC3 Duration : 1 h 41 min Bit rate mode : Constant Bit rate : 192 kb/s Channel(s) : 2 channels Channel layout : L R Sampling rate : 48.0 kHz Frame rate : 31.250 FPS (1536 SPF) Compression mode : Lossy Stream size : 140 MiB (3%) Title : MVO | OPT Language : Russian Service kind : Complete Main Default : No Forced : No Dialog Normalization : -31 dB compr : -0.28 dB mixlevel : 284 dB roomtyp : 3 ltrtcmixlev : -3.0 dB ltrtsurmixlev : -3.0 dB lorocmixlev : -3.0 dB lorosurmixlev : -3.0 dB dialnorm_Average : -31 dB dialnorm_Minimum : -31 dB dialnorm_Maximum : -31 dB Audio #2 ID : 3 Format : AC-3 Format/Info : Audio Coding 3 Commercial name : Dolby Digital Codec ID : A_AC3 Duration : 1 h 41 min Bit rate mode : Constant Bit rate : 256 kb/s Channel(s) : 2 channels Channel layout : L R Sampling rate : 48.0 kHz Frame rate : 31.250 FPS (1536 SPF) Compression mode : Lossy Stream size : 187 MiB (4%) Title : Dub | Хлопушка Language : Russian Service kind : Complete Main Default : No Forced : No Dialog Normalization : -31 dB compr : -0.28 dB mixlevel : 284 dB roomtyp : 3 ltrtcmixlev : -3.0 dB ltrtsurmixlev : -3.0 dB lorocmixlev : -3.0 dB lorosurmixlev : -3.0 dB dialnorm_Average : -31 dB dialnorm_Minimum : -31 dB dialnorm_Maximum : -31 dB Menu 00:00:00.000 : Kapitel 01 00:04:33.690 : Kapitel 02 00:16:57.558 : Kapitel 03 00:22:05.365 : Kapitel 04 00:35:26.999 : Kapitel 05 00:44:37.549 : Kapitel 06 00:48:41.043 : Kapitel 07 00:52:03.870 : Kapitel 08 00:59:43.997 : Kapitel 09 01:01:11.584 : Kapitel 10 01:02:34.000 : Kapitel 11 01:06:02.249 : Kapitel 12 01:07:16.949 : Kapitel 13 01:09:29.915 : Kapitel 14 01:17:58.465 : Kapitel 15 01:21:14.619 : Kapitel 16 01:32:55.778 : Kapitel 17 01:34:21.113 : Kapitel 18
[+] Скриншоты

Всего файлов в раздаче: 1 
The.Crow.1994.BDRip.1080p.Rip.by.HardwareMining.R.G.Generalfilm.mkv4.61 GB

Похожие раздачи по запросу - Ворон
2024-05-20 magnet Дмитрий Ворон - Русское Чернокнижие [3 книги] (2014-2015) PDF 181.46 MB ↑ 0 ↓ 0

Кто качает (только для создателя раздачи и модераторов): Локальные пиры отсутствуют

Комментарии


Зарегистрируйтесь чтобы добавить комментарий
Торрент клиент
byTorrent - программа для загрузки торрент-файлов.

Скачать byTorrent.exe (1,5 МБ)

Скачать byTorrent.zip (0,6 МБ)

Поддержи torrent.by
российских рублей
(300 российских рублей это 4$)

Обратная связь rss

End game ©