↑↓torrent.by
Поиск
Логин:  Регистрация
Пароль:

Панчер [S01] (2024) WEBRip 2160p | 4K | SDR

download Скачать торрент-файл   magnet Магнитная ссылка Размер: 40.58 GB Добавлен: 2024-05-09 17:00
Пиры будут получены из сети DHT
Последний сидер был замечен 2024-05-09 17:00
Информация о сериале Оригинальное название: Панчер Год выпуска: 2024 Жанр: Драма, спорт Режиссер: Евгений Татаров В ролях: Евгений Шириков, Лиза Моряк, Ян Цапник, Кирилл Жандаров, Александр Тютин, Виктория Бычкова, Марина Денисова, Дмитрий Поднозов, Александр Власенко, Олег Дернов О сериале: Виктор — чемпион мира по боксу и любимец болельщиков. По трагической случайности он становится виновником непреднамеренного убийства. В одно мгновенье вся жизнь и карьера национальной звезды рушится, и ему приходится ответить за содеянное. Отбыв наказание, Виктор пытается построить карьеру в подпольных боях, но и здесь никто не ждет от него успехов, слава уже давно ушла, и о его прошлых заслугах помнят только самые близкие люди. Страна: Россия Студия: Кинокомпания "К.Б.А. / Кинокомпания братьев Андреасян" Продолжительность: 10 х ~ 00:30:00 Файл Формат: MKV Качество: WEBRip 2160p | 4K | SDR Видео: MPEG-4 AVC, 3840x2032, ~ 19.1 Мбит/с, 0.098 bit/pixel, 25 Кадр/с, 8 бит Аудио: AC3, 48,0 КГц, 2 ch, 192 Кбит/с Язык: Русский Cубтитры: Нет
[+] Скриншоты
[+] MIОбщее Уникальный идентификатор : 156913968853227051517603919319407559962 (0x760C87F82E9B0ED90649607B0C1C851A) Полное имя : Панчер.2024.S01E01.WEB-DL.2160p.x264.mkv Формат : Matroska Версия формата : Version 4 Размер файла : 4,11 Гбайт Продолжительность : 30 м. 29 с. Режим общего битрейта : Переменный Общий поток : 19,3 Мбит/сек Название фильма : Панчер - S01E01 - t.me/NOOBDL Дата кодирования : UTC 2024-04-11 16:52:44 Программа кодирования : mkvmerge v82.0 ('I'm The President') 64-bit Библиотека кодирования : libebml v1.4.5 + libmatroska v1.7.1 Видео Идентификатор : 1 Формат : AVC Формат/Информация : Advanced Video Codec Профиль формата : High@L5.1 Настройки формата : CABAC / 4 Ref Frames Параметр CABAC формата : Да Параметр RefFrames формата : 4 кадра Идентификатор кодека : V_MPEG4/ISO/AVC Продолжительность : 30 м. 29 с. Вид битрейта : Переменный Битрейт : 19,1 Мбит/сек Максимальный битрейт : 20,0 Мбит/сек Ширина : 3 840 пикселей Высота : 2 032 пикселя Соотношение сторон : 1,895 Режим частоты кадров : Постоянный Частота кадров : 25,000 кадров/сек Цветовое пространство : YUV Субдискретизация насыщенности : 4:2:0 Битовая глубина : 8 бит Тип развёртки : Прогрессивная Бит/(Пиксели*Кадры) : 0.098 Размер потока : 4,07 Гбайт (99%) Язык : English Default : Да Forced : Нет Цветовой диапазон : Limited Основные цвета : BT.709 Характеристики трансфера : BT.709 Коэффициенты матрицы : BT.709 Аудио Идентификатор : 2 Формат : AC-3 Формат/Информация : Audio Coding 3 Коммерческое название : Dolby Digital Идентификатор кодека : A_AC3 Продолжительность : 30 м. 29 с. Вид битрейта : Постоянный Битрейт : 192 Кбит/сек Каналы : 2 канала Channel layout : L R Частота : 48,0 КГц Частота кадров : 31,250 кадров/сек (1536 SPF) Метод сжатия : С потерями Размер потока : 41,9 Мбайт (1%) Язык : Russian Service kind : Complete Main Default : Да Forced : Нет

Всего файлов в раздаче: 10 
[NOOBDL]Панчер.2024.S01E01.WEB-DL.2160p.x264.mkv4.11 GB
[NOOBDL]Панчер.2024.S01E02.WEB-DL.2160p.x264.mkv3.85 GB
[NOOBDL]Панчер.2024.S01E03.WEB-DL.2160p.x264.mkv3.83 GB
[NOOBDL]Панчер.2024.S01E04.WEB-DL.2160p.x264.mkv4.05 GB
[NOOBDL]Панчер.2024.S01E05.WEB-DL.2160p.x264.mkv4.05 GB
[NOOBDL]Панчер.2024.S01E06.WEB-DL.2160p.x264.mkv4.17 GB
[NOOBDL]Панчер.2024.S01E07.WEB-DL.2160p.x264.mkv4.06 GB
[NOOBDL]Панчер.2024.S01E08.WEB-DL.2160p.x264.mkv4.14 GB
[NOOBDL]Панчер.2024.S01E09.WEB-DL.2160p.x264.mkv4.10 GB
[NOOBDL]Панчер.2024.S01E10.WEB-DL.2160p.x264.mkv4.23 GB

Похожие раздачи по запросу - Панчер
2024-05-13 magnet Панчер [S01] (2024) WEBRip от Generalfilm | КПК 1.12 GB ↑ 0 ↓ 0
2024-05-10 magnet Панчер [S01] (2024) WEBRip-AVC от Files-x 3.78 GB ↑ 0 ↓ 0
2024-05-09 magnet Панчер [01-10 из 10] (2024) WEBRip от Files-x 3.66 GB ↑ 0 ↓ 0
2024-05-09 magnet Панчер [01-10 из 10] (2024) WEBRip 1080p от Files-x 9.49 GB ↑ 0 ↓ 0
2024-05-09 magnet Панчер [01-10 из 10] (2024) WEBRip 720p от Files-x 6.44 GB ↑ 0 ↓ 0
2024-05-09 magnet Панчер [01-09 из 10] (2024) WEBRip 1080p от Files-x 8.50 GB ↑ 0 ↓ 0
2024-05-09 magnet Панчер [01-09 из 10] (2024) WEBRip от Files-x 3.27 GB ↑ 0 ↓ 0

Кто качает (только для создателя раздачи и модераторов): Локальные пиры отсутствуют

Комментарии


Зарегистрируйтесь чтобы добавить комментарий
Торрент клиент
byTorrent - программа для загрузки торрент-файлов.

Скачать byTorrent.exe (1,5 МБ)

Скачать byTorrent.zip (0,6 МБ)

Поддержи torrent.by
российских рублей
(300 российских рублей это 4$)

Обратная связь rss

End game ©