↑↓torrent.by
Поиск
Логин:  Регистрация
Пароль:

Шум в сердце / Le souffle au coeur (1971) HDRip от ExKinoRay | P

download Скачать торрент-файл   magnet Магнитная ссылка Размер: 748.55 MB Добавлен: 2024-05-09 17:00
Пиры будут получены из сети DHT
Последний сидер был замечен 2024-05-12 22:28
Информация о фильме Название: Шум в сердце Оригинальное название: Le souffle au coeur Год выхода: 1971 Жанр: драма, комедия Режиссер: Луи Малль В ролях: Леа Массари, Бенуа Феррё, Даниэль Желен, Микаэль Лонсдаль, Аве Нинки, Гила фон Вайтерсхаузен, Фабьен Феррё, Марк Винокур, Мишлин Бона, Анри Пуарье, Лилиан Сорваль, Коринн Керстен, Эрик Вальтер, Франсуа Вернер, Жаклин Шово, Жак Гёзи, Ивон Лек, Бернадетт Роберт, Анни Саварен, Жак Серей О фильме: 14-летний Лоран Шевалье самым близким своим другом считал собственную мать. Они вдвоем поехали на горный курорт. Клара Шевалье флиртовала с одним из постояльцев отеля, ее сын познакомился с девочками-ровесницами. Однако на праздник и Лоран, и его мама остались без спутников... Страна: Франция, Италия, Германия (ФРГ) Студия: Franz Seitz Filmproduktion, Marianne Productions S.A., Vides Cinematografica Продолжительность: 01:58:13 Перевод: Профессиональный многоголосый - VHS - «Видеоимпульс» Файл Кодек: XviD Качество: HDRip Видео: 624x384 (1.63:1), 23.976 fps, XviD build 73 ~745 kbps avg, 0.13 bit/pixel Звук: 48 kHz, MP3, 2 ch, ~128.00 kbps avg Субтитры: Отсутствуют
[+] MediaInfoGeneral Complete name : D:Шум в сердце 1971..HDRip by.ExKinoRay.avi Format : AVI Format/Info : Audio Video Interleave Format settings : BitmapInfoHeader / WaveFormatEx File size : 749 MiB Duration : 1 h 58 min Overall bit rate : 885 kb/s Frame rate : 23.976 FPS Writing application : Lavf58.29.100 Video ID : 0 Format : MPEG-4 Visual Format profile : Advanced Simple@L5 Format settings : BVOP1 / Custom Matrix Format settings, BVOP : 1 Format settings, QPel : No Format settings, GMC : No warppoints Format settings, Matrix : Custom Codec ID : XVID Codec ID/Hint : XviD Duration : 1 h 58 min Bit rate : 745 kb/s Width : 624 pixels Height : 384 pixels Display aspect ratio : 16:10 Frame rate : 23.976 (24000/1001) FPS Color space : YUV Chroma subsampling : 4:2:0 Bit depth : 8 bits Scan type : Progressive Compression mode : Lossy Bits/(Pixel*Frame) : 0.130 Stream size : 630 MiB (84%) Writing library : XviD 67 Audio ID : 1 Format : MPEG Audio Format version : Version 1 Format profile : Layer 3 Format settings : Joint stereo / MS Stereo Codec ID : 55 Codec ID/Hint : MP3 Duration : 1 h 58 min Bit rate mode : Constant Bit rate : 128 kb/s Channel(s) : 2 channels Sampling rate : 48.0 kHz Compression mode : Lossy Stream size : 108 MiB (14%) Alignment : Aligned on interleaves Interleave, duration : 24 ms (0.58 video frame) Title : MVO VHS Writing library : LAME3.100UUU$š½IE'
[+] Скриншоты
Релиз от: Рип изготовил:

Всего файлов в раздаче: 1 
Шум в сердце 1971..HDRip by.ExKinoRay.avi748.55 MB

Похожие раздачи по запросу - Шум
2024-05-16 magnet Белый шум 2: Сияние / White Noise 2: The Light (2007) HDRip-AVC от DoMiNo | D 744.54 MB ↑ 1 ↓ 0
2024-05-16 magnet Белый шум / White Noise (2005) HDRip-AVC от DoMiNo | D 739.22 MB ↑ 1 ↓ 0

Кто качает (только для создателя раздачи и модераторов): Локальные пиры отсутствуют

Комментарии


Зарегистрируйтесь чтобы добавить комментарий
Торрент клиент
byTorrent - программа для загрузки торрент-файлов.

Скачать byTorrent.exe (1,5 МБ)

Скачать byTorrent.zip (0,6 МБ)

Поддержи torrent.by
российских рублей
(300 российских рублей это 4$)

Обратная связь rss

End game ©