↑↓torrent.by
Поиск
Логин:  Регистрация
Пароль:

Алла Пугачёва - Коллекция [Remastered] (2024) FLAC

download Скачать торрент-файл   magnet Магнитная ссылка Размер: 3.78 GB Добавлен: 2024-05-09 17:00
Пиры будут получены из сети DHT
Последний сидер был замечен 2024-05-13 06:27
Название: Коллекция Исполнитель: Алла Пугачёва Год: 2024 Жанр: Pop Страна: Россия Продолжительность: 09:37:50 Формат/Кодек: FLAC Тип рипа: Tracks Битрейт аудио: Lossless Носитель: WEB, CD
[+] Я летала Продолжительность: 01:43:00 01. Я летала (3:57) 02. Не звони (2:46) 03. Просто (3:25) 04. Не беспокойся за меня (3:38) 05. Нас бьют, мы летаем (3:43) 06. Я смогу (3:58) 07. Гадалка (дуэт с группой Штар) (3:18) 08. Опять метель (Solo Version) (3:35) 09. Тянет сердце руки (4:02) 10. Осторожно, листопад! (5:23) 11. Мадам Брошкина (Mix Disco '80) (4:33) 12. Непогода (4:48) 13. Война (3:40) 14. Арлекино (Geoffrey Day Remix) (4:21) 15. Звёздное лето (Geoffrey Day Remix) (4:38) 16. Алло (Dub House Remix) (3:42) 17. Надо же (Remix) (4:49) 18. Позови меня с собой (Remix) (4:24) 19. Сто друзей (Vengerov & Fedoroff Remix) (5:14) 20. Айсберг (Electro House Remix) (6:15) 21. Не сгорю (Dj Boyko Remix) (3:51) 22. Золотая карусель (Trance Brothers Remix) (6:09) 23. Кафе танцующих огней (Remix) (6:16) 24. Да (Chill Mix) (7:44) 25. Птица певчая (Remix) (4:53)
[+] Лог проверки качества + DRM ----------------------- DON'T MODIFY THIS FILE ----------------------- PERFORMER: auCDtect Task Manager, ver. 1.6.0 RC1 build 1.6.0.1 Copyright (c) 2008-2010 y-soft. All rights reserved http://y-soft.org ANALYZER: auCDtect: CD records authenticity detector, version 0.8.2 Copyright (c) 2004 Oleg Berngardt. All rights reserved. Copyright (c) 2004 Alexander Djourik. All rights reserved. FILE: 01. Я летала.flac Size: 25499833 Hash: 1B8D194EFB20CF8C592FAFE12FCA8E40 Accuracy: -m8 Conclusion: CDDA 100% Signature: 413D9B56D70588229028392F0BA3BE7BDE51A20A FILE: 02. Не звони.flac Size: 19838572 Hash: 09B78D399F33B91C3CB5B0D139EFDFF1 Accuracy: -m8 Conclusion: CDDA 100% Signature: 7D04EB594661B6BE88EB4FDD9538965BE49DB0AD FILE: 03. Просто.flac Size: 23893380 Hash: 362DE6A776AD3AAB86003C38FD6D4B13 Accuracy: -m8 Conclusion: CDDA 100% Signature: B683AADC382BACB1F5342F7943EA1573B66F8E61 FILE: 04. Не беспокойся за меня.flac Size: 26217087 Hash: DDA61676BA495840F018A163EB7AF60B Accuracy: -m8 Conclusion: CDDA 100% Signature: 16A75F8EF7F2A8A229F71E74E0C38F8825A6FE1E FILE: 05. Нас бьют, мы летаем.flac Size: 26808931 Hash: 7006C9F0DAD2928FF92FF07B34CB0C49 Accuracy: -m8 Conclusion: CDDA 100% Signature: 29B848B186267BD526238035404ACDA2A568E22B FILE: 06. Я смогу.flac Size: 30188843 Hash: 885420A0CCD8DBF906F7F914D278B169 Accuracy: -m8 Conclusion: CDDA 100% Signature: CC878DEF937B881D11A641A0548F06D0620F03C1 FILE: 07. Гадалка (дуэт с группой Штар).flac Size: 25091151 Hash: 356528C10E77B58A86AFC430873013E9 Accuracy: -m8 Conclusion: CDDA 99% Signature: E093A8411631C226D6D8D74CCD31EDC9B8DFCF32 FILE: 08. Опять метель (Solo Version).flac Size: 23525555 Hash: D976875D44E6FF6ADA66A92E27655956 Accuracy: -m8 Conclusion: CDDA 100% Signature: 41946B7774897F18BA6430C573A76CE0EC10F811 FILE: 09. Тянет сердце руки.flac Size: 30959974 Hash: 9B63A689D800DE91F410404FB0F3FC3B Accuracy: -m8 Conclusion: CDDA 100% Signature: 908EDC62F3EC746415E33B7B2D5D22E24922CC89 FILE: 10. Осторожно, листопад!.flac Size: 36345426 Hash: F561BE6E0EDEBF86053416A55B77E147 Accuracy: -m8 Conclusion: CDDA 100% Signature: 99E68391CF2E52AEBA1BA3D3CFFB4298DC5F95AB FILE: 11. Мадам Брошкина (Mix Disco '80).flac Size: 32208179 Hash: 5361FD7516C44FE631AC692DEF468B0B Accuracy: -m8 Conclusion: CDDA 100% Signature: 1DBBBBD501EFDD08B8B3AF6A714FBCB2F82EEB60 FILE: 12. Непогода.flac Size: 32137627 Hash: 5EC5507B0B8F210C504F2469C7A74258 Accuracy: -m8 Conclusion: CDDA 99% Signature: C9E976662067F77AC83E50F3A8E36DFE9362C6D7 FILE: 13. Война.flac Size: 27751296 Hash: B5F77D20DE63B8E2F495403BF9DD0E02 Accuracy: -m8 Conclusion: CDDA 100% Signature: FBF6675FAD4C5F48D71F72BC8D92345524445873 FILE: 14. Арлекино (Geoffrey Day Remix).flac Size: 30681697 Hash: BB5F80E7F01129C6F497FD4F188B3707 Accuracy: -m8 Conclusion: CDDA 100% Signature: 7A282CA9EFF3B8372B793D974F0F4A5B350EAE49 FILE: 15. Звёздное лето (Geoffrey Day Remix).flac Size: 33023853 Hash: A741DAA31E72B0AC1322EA2DD4945D95 Accuracy: -m8 Conclusion: CDDA 100% Signature: 8663556DEA7C6C87F6564F1A2DEE9A2AD10D47CB FILE: 16. Алло (Dub House Remix).flac Size: 29856002 Hash: BA6BB0CB1B83D4FAC56A61D529E955D2 Accuracy: -m8 Conclusion: CDDA 100% Signature: B3FB924992DB9DE2745BB2547D587DEE7324A709 FILE: 17. Надо же (Remix).flac Size: 38896284 Hash: 755AA1F8E233048440DF1575FAC8A530 Accuracy: -m8 Conclusion: CDDA 99% Signature: 0023B5307AAFD4C23BAD7974A1FDC16DC03EFC05 FILE: 18. Позови меня с собой (Remix).flac Size: 33917104 Hash: 40915426E868E452B7C916ADC6790A10 Accuracy: -m8 Conclusion: CDDA 100% Signature: 92EF7D5454F56A1C9AE920DA86270C0597CD7CF9 FILE: 19. Сто друзей (Vengerov & Fedoroff Remix).flac Size: 36819529 Hash: AD55BFD218D012BF82F6E8161926CD4E Accuracy: -m8 Conclusion: CDDA 100% Signature: 785C5C4ADBD9FF6CE629F8B6D9CF5A2C8CAFBEA8 FILE: 20. Айсберг (Electro House Remix).flac Size: 37198558 Hash: 51B2D314082B756AD73587CBB8A2B709 Accuracy: -m8 Conclusion: CDDA 100% Signature: 3C1B88D170536FF147AC84476B98673AA2F077AB FILE: 21. Не сгорю (Dj Boyko Remix).flac Size: 25894601 Hash: 3354E2E35B45F3E472EB959C9EF1AE60 Accuracy: -m8 Conclusion: CDDA 100% Signature: 6527ED6C7F746026F8712BBBB7C3C8E7F86695C3 FILE: 22. Золотая карусель (Trance Brothers Remix).flac Size: 39944041 Hash: F66B96B9123843EDC763B9D2EE87BE3F Accuracy: -m8 Conclusion: CDDA 100% Signature: 0C6F1556DD64A5B471C100395DB6DA84445643F4 FILE: 23. Кафе танцующих огней (Remix).flac Size: 38987618 Hash: 6FF8CDCE1D5A2052A3D417DD90820FD8 Accuracy: -m8 Conclusion: CDDA 99% Signature: FCA715EA13EF14B97AA0DD9074BD5AA0789B5C7C FILE: 24. Да (Chill Mix).flac Size: 49814023 Hash: F8BB32AB15042F6AE3222451144CA9BC Accuracy: -m8 Conclusion: CDDA 99% Signature: 6E0C9904D0A93C6ECD8A54AAEB53D9152C9B17EC FILE: 25. Птица певчая (Remix).flac Size: 30240081 Hash: 85E4AB3DD969C6F3C36B86B641F6DB60 Accuracy: -m8 Conclusion: CDDA 100% Signature: B0BF5A87ECC7F43A273629B7A7ED5C6DE21DB50D foobar2000 1.5.5 / Замер динамического диапазона (DR) 1.1.1 -------------------------------------------------------------------------------- Анализ: Алла Пугачёва / Я летала -------------------------------------------------------------------------------- DR Пики RMS Продолжительность трека -------------------------------------------------------------------------------- DR8 -0.10 дБ -9.36 дБ 3:57 01-Я летала DR9 -0.50 дБ -11.26 дБ 2:46 02-Не звони DR9 -0.10 дБ -10.18 дБ 3:25 03-Просто DR10 0.00 дБ -13.26 дБ 3:38 04-Не беспокойся за меня DR10 0.00 дБ -11.92 дБ 3:43 05-Нас бьют, мы летаем DR10 0.00 дБ -11.79 дБ 3:58 06-Я смогу DR9 -0.50 дБ -11.35 дБ 3:18 07-Гадалка DR9 -0.50 дБ -12.72 дБ 3:35 08-Опять метель DR9 -0.10 дБ -10.53 дБ 4:02 09-Тянет сердце руки DR11 -0.10 дБ -12.52 дБ 5:23 10-Осторожно, листопад! DR11 -0.50 дБ -12.33 дБ 4:33 11-Мадам Брошкина (Mix Disco '80) DR12 -0.10 дБ -13.97 дБ 4:48 12-Непогода DR11 -0.10 дБ -12.69 дБ 3:40 13-Война DR10 -0.50 дБ -11.74 дБ 4:21 14-Арлекино (Geoffrey Day Remix) DR9 -0.50 дБ -10.72 дБ 4:38 15-Звёздное лето (Geoffrey Day Remix) DR10 -0.50 дБ -11.39 дБ 3:42 16-Алло (Dub House Remix) DR9 -0.50 дБ -10.63 дБ 4:49 17-Надо же (Remix) DR9 -0.50 дБ -11.55 дБ 4:24 18-Позови меня с собой (Remix) DR9 -0.50 дБ -10.37 дБ 5:14 19-Сто друзей (Vengerov & Fedoroff Remix) DR9 -0.50 дБ -11.25 дБ 6:15 20-Айсберг (Electro House RMX) DR9 -0.50 дБ -10.85 дБ 3:51 21-Не сгорю (Dj Boyko Remix) DR10 -0.50 дБ -11.39 дБ 6:09 22-Золотая карусель (Trance Brothers Remix) DR10 -0.50 дБ -11.18 дБ 6:16 23-Кафе танцующих огней (Remix) DR12 -0.50 дБ -13.37 дБ 7:44 24-Да (Chill Mix) DR11 -0.10 дБ -12.62 дБ 4:53 25-Птица певчая (Remix) -------------------------------------------------------------------------------- Количество треков: 25 Реальные значения DR: DR10 Частота: 44100 Гц Каналов: 2 Разрядность: 16 Битрейт: 819 кбит/с Кодек: FLAC ================================================================================
[+] Золотые песни. Часть 1 Продолжительность: 03:51:07 01. Позови меня с собой (4:16) 02. Снежный мальчик (3:27) 03. Осенние листья (4:00) 04. Ты там, я там (3:34) 05. Любовь, как состояние (3:26) 06. Холодно в городе (3:37) 07. Живём пока (2:51) 08. Здесь мы долго (3:04) 09. Счастье (5:03) 10. Мал-помалу (2:57) 11. Не плачь (3:56) 12. Девочка секонд-хэнд (4:31) 13. Любовь, похожая на сон (4:56) 14. Голубь сизокрылый (3:37) 15. Молодой человек, пригласите танцевать (4:42) 16. Фотограф (4:01) 17. Близкие люди (3:59) 18. Не обижай меня (5:10) 19. Озеро надежды (4:39) 20. Осенний поцелуй (4:58) 21. Беги, беглец, беги (4:42) 22. Сто друзей (3:19) 23. Желаю счастья в личной жизни (3:56) 24. Паромщик (3:26) 25. Балет (4:23) 26. Прости, поверь (3:51) 27. Балалайка (3:47) 28. Стеклянные цветы (3:43) 29. Две звезды (дуэт с Владимиром Кузьминым) (3:56) 30. Коралловые бусы (3:39) 31. Свирель (3:57) 32. Встреча в пути (4:37) 33. Я приглашаю вас на праздник (3:04) 34. Любимчик Пашка (3:13) 35. Айсберг (4:26) 36. Расскажите, птицы (6:15) 37. Надо же (3:47) 38. С тобой и без тебя (3:15) 39. Золотая карусель (Белые цветы) (3:34) 40. Алло (4:20) 41. Королева (5:03) 42. Белая дверь (4:35) 43. Отражение в воде (4:15) 44. Сирена (4:04) 45. Белая панама (5:47) 46. Поздно (дуэт с Валерием Леонтьевым) (4:22) 47. Делу время (3:27) 48. Без меня (4:34) 49. Старинные часы (4:10) 50. Маэстро (5:38) 51. Миллион алых роз (5:51) 52. Цыганский хор (3:48) 53. Канатоходка (5:21) 54. Ты на свете есть (4:38) 55. А знаешь, всё ещё будет (3:16)
[+] Лог проверки качества + DRM ----------------------- DON'T MODIFY THIS FILE ----------------------- PERFORMER: auCDtect Task Manager, ver. 1.6.0 RC1 build 1.6.0.1 Copyright (c) 2008-2010 y-soft. All rights reserved http://y-soft.org ANALYZER: auCDtect: CD records authenticity detector, version 0.8.2 Copyright (c) 2004 Oleg Berngardt. All rights reserved. Copyright (c) 2004 Alexander Djourik. All rights reserved. FILE: 01. Позови меня с собой.flac Size: 32901230 Hash: 6CB9C2F4EA92BA89EC9AFF32823B7005 Accuracy: -m8 Conclusion: CDDA 100% Signature: B43A6A183DF85247C046119AB338C628382ED4AB FILE: 02. Снежный мальчик.flac Size: 25694598 Hash: CFDC200A767D65227E69A79538DDCCFF Accuracy: -m8 Conclusion: CDDA 100% Signature: E079D257BE91BB19B08CC19832B60ABDC30E1A03 FILE: 03. Осенние листья.flac Size: 28525732 Hash: B508382EA7EA27881482A86886315EF6 Accuracy: -m8 Conclusion: CDDA 100% Signature: 6B170B1E9DABE6238AC5A27E1C88E3E839E4D8DB FILE: 04. Ты там, я там.flac Size: 27289584 Hash: 739EC351EA92110E5F3203D3B7216F38 Accuracy: -m8 Conclusion: CDDA 99% Signature: 03B2BD44AE06532C669558E02164DC4087DA3F2A FILE: 05. Любовь, как состояние.flac Size: 26681280 Hash: 44089E4DE1B53ABB407DAFD41FFB6ABF Accuracy: -m8 Conclusion: CDDA 100% Signature: 9541C6689FA075B6229590440A165AD51B6DA005 FILE: 06. Холодно в городе.flac Size: 27422072 Hash: E4D074F674EB525B2472298878442F7B Accuracy: -m8 Conclusion: CDDA 100% Signature: C55D192304C5441F1FB4FD0EC7B0A8B289607720 FILE: 07. Живём пока.flac Size: 20349437 Hash: FD8FE478DE17337AD92102F0488AB92E Accuracy: -m8 Conclusion: CDDA 100% Signature: 4BD8C995606BE6272F76F6DA3816956F46124253 FILE: 08. Здесь мы долго.flac Size: 23828798 Hash: E2C46C4BA9AC968FB4703A0C665995C6 Accuracy: -m8 Conclusion: CDDA 99% Signature: EBA053F20A89357977E6C6B39D0DF708C6FD7654 FILE: 09. Счастье.flac Size: 37264332 Hash: CAA0CEDF70F7889C99D9BC06EAA1A41B Accuracy: -m8 Conclusion: CDDA 100% Signature: 1D2110D87DE6352CB48E982EDB2508020D741B12 FILE: 10. Мал-помалу.flac Size: 21006339 Hash: 0EFBCED7A9CA84778CD0B113E013FBF9 Accuracy: -m8 Conclusion: CDDA 100% Signature: E047A5204D02AEF2909D1741293A37FE18582862 FILE: 11. Не плачь.flac Size: 28199218 Hash: 4444B99E4AA4253A3D51A2C6D78ABAC2 Accuracy: -m8 Conclusion: CDDA 100% Signature: 6C00191B904FE4624CE82D273D19EEEEBDB69F99 FILE: 12. Девочка секонд-хэнд.flac Size: 31953523 Hash: 57B75331235F338B29149AFAA0BFDD55 Accuracy: -m8 Conclusion: CDDA 100% Signature: 7A2CFF620AA490E15FEC306D9F968A01220EC301 FILE: 13. Любовь, похожая на сон.flac Size: 35210267 Hash: 0F7EF3080F41C942C2C5B1812FCFE479 Accuracy: -m8 Conclusion: CDDA 100% Signature: 60C6EBF6612E00D6A630DAFFFDA221C005016461 FILE: 14. Голубь сизокрылый.flac Size: 27201766 Hash: 22D0387297CE1F7E81E6FDA15C76E409 Accuracy: -m8 Conclusion: CDDA 100% Signature: 2AEE6E29A6B6807A2037BA457D53913B9B168767 FILE: 15. Молодой человек, пригласите танцевать.flac Size: 32395307 Hash: AA3C546F502B6AE96FD725CF501E806D Accuracy: -m8 Conclusion: CDDA 100% Signature: 736B8550E781870542AD5F6F320C049B87F33509 FILE: 16. Фотограф.flac Size: 30920778 Hash: FA0BF271DE1B97C7F9EB94683F6D6079 Accuracy: -m8 Conclusion: CDDA 99% Signature: E8BE90BAAAE6D1ED31A4477120AC54697EC9F376 FILE: 17. Близкие люди.flac Size: 29440503 Hash: 01ACF4FC6DA82224C45B7BD1E66CA475 Accuracy: -m8 Conclusion: CDDA 100% Signature: A583B114DCE46FDFE8EB073E33FB04267AAF62CB FILE: 18. Не обижай меня.flac Size: 34222773 Hash: 015E060199A8C91B09B8602465DA7E53 Accuracy: -m8 Conclusion: CDDA 100% Signature: DF1A8F7D6E16A16B9CFF81717AC971800CF2878E FILE: 19. Озеро надежды.flac Size: 34343675 Hash: 9AEA185A3E5E751C65881AE7C994E279 Accuracy: -m8 Conclusion: CDDA 100% Signature: FD23CC75FFFF9E2B984517054F2C7A2F647B844C FILE: 20. Осенний поцелуй.flac Size: 37197127 Hash: 0E484CBE7DB85EDAA2151952C9BAE50B Accuracy: -m8 Conclusion: CDDA 100% Signature: B6D8910B84B970A8A86A71234F04755687E1A8FC FILE: 21. Беги, беглец, беги.flac Size: 35970563 Hash: 5BDCF7E1CACC371C3FB148AD9D3AC3E5 Accuracy: -m8 Conclusion: CDDA 100% Signature: 1C9FF9A9986E55FE72BF90F3B4DC24E7D76EA538 FILE: 22. Сто друзей.flac Size: 22454435 Hash: 777D0A029D5F126A41F3AA661BD3DF66 Accuracy: -m8 Conclusion: CDDA 100% Signature: FF0EFAF5713C08A91FA8FE5F0417F813653BAAFA FILE: 23. Желаю счастья в личной жизни.flac Size: 27901808 Hash: 779B389E27F481F8B2D3F0F29D77D80D Accuracy: -m8 Conclusion: CDDA 100% Signature: 6E0ABBA6D57ACEBCBEBAC7FB1E825CAD81C017D2 FILE: 24. Паромщик.flac Size: 24159804 Hash: 239E7EC8F75E794A006436AE4A088916 Accuracy: -m8 Conclusion: CDDA 100% Signature: EFC5C17158B68ED1FF791E8DCE6F75C515167FF9 FILE: 25. Балет.flac Size: 31493601 Hash: B7E791B9313D603AFFA1140400AC3BD1 Accuracy: -m8 Conclusion: CDDA 100% Signature: AB43D7A795F9B9745E5A4C1B2DEC2471DC07D39E FILE: 26. Прости, поверь.flac Size: 24870257 Hash: 117F54512EABAD919D912038B0763F4C Accuracy: -m8 Conclusion: CDDA 100% Signature: 795C6FB715C7A82E344CFE947063B650D5E16345 FILE: 27. Балалайка.flac Size: 26790188 Hash: 45729B908A94A46146736DA6E6E60A12 Accuracy: -m8 Conclusion: CDDA 100% Signature: 4D553ADD2EF60C78E69D31F767913B0ACE784B2F FILE: 28. Стеклянные цветы.flac Size: 26542535 Hash: 7896AF0A6C531C149EDC784BD0A4DC62 Accuracy: -m8 Conclusion: CDDA 100% Signature: 87F9CB33FDEC0FA7AA87CEAA32F6EA2C421CA3D4 FILE: 29. Две звезды (дуэт с Владимиром Кузьминым).flac Size: 29082779 Hash: E9FC6149BE7F7753DF5CCAC3D33AB344 Accuracy: -m8 Conclusion: CDDA 100% Signature: 3C48C6E46B1A27025AAFAFE150FEBAD802B4D143 FILE: 30. Коралловые бусы.flac Size: 24892143 Hash: 39669ADAAB916A065ACEB00DE3A938BA Accuracy: -m8 Conclusion: CDDA 100% Signature: 01E65BFEC15D4E47C47CE89944AA57A4E4B2D6E9 FILE: 31. Свирель.flac Size: 29617011 Hash: 3821DD56923696DF7E95505CD78F775C Accuracy: -m8 Conclusion: CDDA 100% Signature: 6E5FCE4D6B2D9C616761EFF2A66FE44843651959 FILE: 32. Встреча в пути.flac Size: 30471790 Hash: B0A289C968230FB5D89D3A0DA9E4E3ED Accuracy: -m8 Conclusion: CDDA 100% Signature: 18B1F8CBC76E96DF715F6206C669544619223703 FILE: 33. Я приглашаю вас на праздник.flac Size: 23563002 Hash: 43D3D96F4AA189E6C42903BC3D3C5BEB Accuracy: -m8 Conclusion: CDDA 99% Signature: 3F80E4DF5C3111A1C99432937FA56A164BA692A3 FILE: 34. Любимчик Пашка.flac Size: 21846192 Hash: 10DB712A26A71F4F17FB17F207758737 Accuracy: -m8 Conclusion: CDDA 100% Signature: 3261AD352C7006E14A8C4AF0A8B1DD36F2978F0F FILE: 35. Айсберг.flac Size: 31541367 Hash: 6ECBC61D75AFCFF8CC4FBE12176BAF5B Accuracy: -m8 Conclusion: CDDA 100% Signature: 880DD5CE707A12AB0D8A93759985CFA807DE8D39 FILE: 36. Расскажите, птицы.flac Size: 43572803 Hash: 14ADC742D91139E618E83B61DB4BBBF4 Accuracy: -m8 Conclusion: CDDA 100% Signature: 33D2EBD568FDF97C6B0153C5EB7BF1C611EB54E0 FILE: 37. Надо же.flac Size: 27465877 Hash: 72EEC12D7E4263295279DF7F95AE729C Accuracy: -m8 Conclusion: CDDA 100% Signature: 582AFC6468997DC1594728F8D950AC6D459FB7A5 FILE: 38. С тобой и без тебя.flac Size: 23668589 Hash: 69ADF49678551250C7256BE5CD2CCEC2 Accuracy: -m8 Conclusion: CDDA 100% Signature: 5FBAB0F566859F4E339886DB763C1ABC89019294 FILE: 39. Золотая карусель (Белые цветы).flac Size: 24514676 Hash: 1DCD87659FE13B04465DD0F6AC0B36B8 Accuracy: -m8 Conclusion: CDDA 100% Signature: BD3237EAE82BDBC379B16A605177E04E23D80DB5 FILE: 40. Алло.flac Size: 33043518 Hash: D23D24292CC6F2714A78EEE6ED20F578 Accuracy: -m8 Conclusion: CDDA 99% Signature: A74499B8D5FB26A7F01695802336D602C770F096 FILE: 41. Королева.flac Size: 34211724 Hash: 743B5D4ED975BD7E7BA6F50F3FCEF778 Accuracy: -m8 Conclusion: CDDA 100% Signature: CCEFAD3BF879307CC1EEAD163015A0842D6E299D FILE: 42. Белая дверь.flac Size: 32780776 Hash: D9D538CDF70C3FFD285891F832F2D104 Accuracy: -m8 Conclusion: CDDA 100% Signature: 4D6648F4F6321CE918BB7EA34A0A0ADEA6C8E56B FILE: 43. Отражение в воде.flac Size: 30535641 Hash: 8626B6CFAC8FF2647EAF05D384BE2AAF Accuracy: -m8 Conclusion: CDDA 100% Signature: 11C1556B1113BEBF145DDBADAA900D73BA6913CC FILE: 44. Сирена.flac Size: 30064452 Hash: 0A2D6FA8F04CDDD127DA1A38A179F3E3 Accuracy: -m8 Conclusion: CDDA 100% Signature: C4E0C6DA193334AA54844A9F35E93893B485DEA6 FILE: 45. Белая панама.flac Size: 37730540 Hash: 74CCEC4D2B04CF88FE45072BC932CF8C Accuracy: -m8 Conclusion: CDDA 99% Signature: A399AC0A336D1C2F4CCDA3821B939364D27560CB FILE: 46. Поздно (дуэт с Валерием Леонтьевым).flac Size: 28578782 Hash: 203CD5CD09247FF57FB74541600879D0 Accuracy: -m8 Conclusion: CDDA 100% Signature: 5ADAF32355D56D326836557E905018828C048047 FILE: 47. Делу время.flac Size: 23258954 Hash: 957C76B2B9C4FD037B2DB6D2588DC587 Accuracy: -m8 Conclusion: CDDA 100% Signature: 60090FC86B903D5B84F7823C99BF8FF6B26F3F35 FILE: 48. Без меня.flac Size: 30095245 Hash: 24EC6A77F81F5640EED531720AB5F8E3 Accuracy: -m8 Conclusion: CDDA 100% Signature: 5EA41A41C84CB34249C522709E418C0E5BFF0014 FILE: 49. Старинные часы.flac Size: 27609508 Hash: 2B8CBA58245FA8EC9E0DD21E17A9F6E0 Accuracy: -m8 Conclusion: CDDA 100% Signature: E09D4383B885C1E3DD0BF36B55D1E71EC6351EE6 FILE: 50. Маэстро.flac Size: 36029918 Hash: B855C66EAA3D193C4CD4F90D38C91AEA Accuracy: -m8 Conclusion: CDDA 100% Signature: 0524BE20B5D52F20139F038B474863C5D80819FA FILE: 51. Миллион алых роз.flac Size: 36812798 Hash: 98171DE0AA03AABA01F7BC56059C907F Accuracy: -m8 Conclusion: CDDA 100% Signature: 7B6733EE418B0B9E89CC7497E05720D26A90F3BA FILE: 52. Цыганский хор.flac Size: 27455640 Hash: CA68A31FEF2ECC6F65484BA5B24F0C65 Accuracy: -m8 Conclusion: CDDA 100% Signature: 3449F638C85151C3A70124D9AC68965C35BD5512 FILE: 53. Канатоходка.flac Size: 36466068 Hash: D8A78D7768A1345B01032D0B2B22C830 Accuracy: -m8 Conclusion: CDDA 100% Signature: 55FB783342DF161C71C357AB77FC62CCCE6FD045 FILE: 54. Ты на свете есть.flac Size: 27458927 Hash: 66B0D354362784E5D6F1A31A7F13E01D Accuracy: -m8 Conclusion: CDDA 100% Signature: F45AC46B806435CEA714DC941DF96844811AD989 FILE: 55. А знаешь, всё ещё будет.flac Size: 22175634 Hash: 2733BB146F95F550CA27FFFD82977782 Accuracy: -m8 Conclusion: CDDA 100% Signature: 12ED8A67A5BEE952EA385BF8AFCBB29197973ED1 foobar2000 1.5.5 / Замер динамического диапазона (DR) 1.1.1 -------------------------------------------------------------------------------- Анализ: Алла Пугачёва / Золотые песни. Часть 1 -------------------------------------------------------------------------------- DR Пики RMS Продолжительность трека -------------------------------------------------------------------------------- DR10 -0.50 дБ -12.20 дБ 4:16 01-Позови меня с собой DR12 -0.10 дБ -13.79 дБ 3:27 02-Снежный мальчик DR12 -0.50 дБ -14.19 дБ 4:00 03-Осенние листья DR10 -0.50 дБ -11.21 дБ 3:34 04-Ты там, я там DR11 -0.50 дБ -12.61 дБ 3:26 05-Любовь, как состояние DR11 -0.50 дБ -12.33 дБ 3:37 06-Холодно в городе DR12 -0.50 дБ -13.85 дБ 2:51 07-Живём пока DR10 -0.50 дБ -11.95 дБ 3:04 08-Здесь мы долго DR11 -0.50 дБ -13.37 дБ 5:03 09-Счастье DR11 -0.05 дБ -13.27 дБ 2:57 10-Мал-помалу DR11 -0.10 дБ -14.03 дБ 3:56 11-Не плачь DR12 -0.10 дБ -13.80 дБ 4:31 12-Девочка секонд-хэнд DR10 -0.11 дБ -11.60 дБ 4:56 13-Любовь, похожая на сон DR11 -0.10 дБ -13.51 дБ 3:37 14-Голубь сизокрылый DR14 -0.10 дБ -15.34 дБ 4:42 15-Молодой человек, пригласите танцевать DR13 -0.10 дБ -14.29 дБ 4:01 16-Фотограф DR11 -0.10 дБ -12.61 дБ 3:59 17-Близкие люди DR11 -0.50 дБ -15.35 дБ 5:10 18-Не обижай меня DR10 -0.50 дБ -12.23 дБ 4:39 19-Озеро надежды DR11 -0.50 дБ -12.76 дБ 4:58 20-Осенний поцелуй DR14 -0.10 дБ -15.33 дБ 4:42 21-Беги, беглец, беги DR12 -0.10 дБ -14.10 дБ 3:19 22-Сто друзей DR13 -0.50 дБ -14.41 дБ 3:56 23-Желаю счастья в личной жизни DR12 -0.10 дБ -13.48 дБ 3:26 24-Паромщик DR10 -0.10 дБ -12.37 дБ 4:23 25-Балет DR14 -0.50 дБ -16.30 дБ 3:51 26-Прости, поверь DR11 -0.50 дБ -12.55 дБ 3:47 27-Балалайка DR12 -0.10 дБ -13.93 дБ 3:43 28-Стеклянные цветы DR11 -0.10 дБ -12.62 дБ 3:56 29-Две звезды DR11 -0.10 дБ -12.79 дБ 3:39 30-Коралловые бусы DR13 -0.27 дБ -14.64 дБ 3:57 31-Свирель DR15 -0.10 дБ -16.29 дБ 4:37 32-Встреча в пути DR11 -0.50 дБ -12.99 дБ 3:04 33-Я приглашаю вас на праздник DR13 -0.10 дБ -14.42 дБ 3:13 34-Любимчик Пашка DR10 -0.10 дБ -12.47 дБ 4:26 35-Айсберг DR13 -0.10 дБ -15.25 дБ 6:15 36-Расскажите, птицы DR13 -0.27 дБ -14.58 дБ 3:47 37-Надо же DR12 -0.28 дБ -13.62 дБ 3:15 38-С тобой и без тебя DR11 -2.73 дБ -16.56 дБ 3:34 39-Золотая карусель (Белые цветы) DR11 -0.50 дБ -12.44 дБ 4:20 40-Алло DR12 -0.53 дБ -14.47 дБ 5:03 41-Королева DR10 -0.50 дБ -12.69 дБ 4:35 42-Белая дверь DR10 -0.50 дБ -12.94 дБ 4:15 43-Отражение в воде DR11 -0.50 дБ -12.53 дБ 4:04 44-Сирена DR13 0.00 дБ -14.91 дБ 5:47 45-Белая панама DR14 -0.10 дБ -17.25 дБ 4:22 46-Поздно DR11 -1.08 дБ -14.09 дБ 3:27 47-Делу время DR13 -0.10 дБ -16.05 дБ 4:34 48-Без меня DR13 -0.50 дБ -15.41 дБ 4:10 49-Старинные часы DR12 -0.31 дБ -15.51 дБ 5:38 50-Маэстро DR11 -0.50 дБ -13.92 дБ 5:51 51-Миллион алых роз DR12 -0.10 дБ -13.56 дБ 3:48 52-Цыганский хор DR14 -0.10 дБ -15.77 дБ 5:21 53-Канатоходка DR13 -0.76 дБ -16.79 дБ 4:38 54-Ты на свете есть DR14 -0.10 дБ -15.40 дБ 3:16 55-А знаешь, всё ещё будет -------------------------------------------------------------------------------- Количество треков: 55 Реальные значения DR: DR12 Частота: 44100 Гц Каналов: 2 Разрядность: 16 Битрейт: 883 кбит/с Кодек: FLAC ================================================================================
[+] Золотые песни. Часть 2 Продолжительность: 03:53:42 01. Дожди (3:53) 02. Приглашение на закат (4:45) 03. Холодно (дуэт с Максимом Галкиным) (3:09) 04. Доченька (4:18) 05. Я пою (5:13) 06. Ухожу (4:39) 07. Игра (4:50) 08. Миллениум (3:17) 09. Только не назад (3:36) 10. Позови меня с собой (4:52) 11. Исчезнет грусть (3:43) 12. А ты не знал (4:09) 13. Белый снег (4:00) 14. Примадонна (3:02) 15. Свеча горела на столе (4:46) 16. Голубка (4:22) 17. Большак (5:33) 18. Мэри (4:33) 19. Не делайте мне больно, господа (3:24) 20. Бессонница (3:57) 21. Настоящий полковник (4:43) 22. Так иди же сюда (3:32) 23. Сильная женщина (3:59) 24. Колдун (3:18) 25. Грабитель (3:11) 26. Между небом и землёй (3:16) 27. Придумай что-нибудь (2:47) 28. Пропади ты пропадом, милый (3:45) 29. Чао (3:10) 30. Любимчик Пашка (3:13) 31. Птица певчая (4:15) 32. Я тебя поцеловала (2:49) 33. Найти меня (4:23) 34. Окраина (4:49) 35. Святая ложь (5:19) 36. Терема (5:17) 37. Возвращение (3:59) 38. Жди и помни меня (4:34) 39. Этот мир (2:28) 40. Как тревожен этот путь (3:53) 41. Арлекино (4:34) 42. Всё могут короли (3:00) 43. Держи меня, соломинка (4:13) 44. Ты возьми меня с собой (2:51) 45. Не отрекаются любя (4:08) 46. Куда уходит детство (4:47) 47. Песенка про меня (3:37) 48. Звёздное лето (4:40) 49. Не обещай (2:59) 50. Очень хорошо (3:20) 51. Куда уехал цирк (2:36) 52. Песенка первоклассника (2:33) 53. Волшебник-недоучка (3:21) 54. Найди себе друга (2:34) 55. Улетай, туча (4:58) 56. Поднимись над суетой (4:19) 57. Что было однажды (3:36) 58. Посидим, поокаем (3:26) 59. Любовь одна виновата (3:15) 60. Женщина, которая поёт (4:16)
[+] Лог проверки качества + DRM ----------------------- DON'T MODIFY THIS FILE ----------------------- PERFORMER: auCDtect Task Manager, ver. 1.6.0 RC1 build 1.6.0.1 Copyright (c) 2008-2010 y-soft. All rights reserved http://y-soft.org ANALYZER: auCDtect: CD records authenticity detector, version 0.8.2 Copyright (c) 2004 Oleg Berngardt. All rights reserved. Copyright (c) 2004 Alexander Djourik. All rights reserved. FILE: 01. Дожди.flac Size: 29398180 Hash: 0DCA3077EC17D87E4BC6A508CA74E641 Accuracy: -m8 Conclusion: CDDA 100% Signature: C57929DCB01B5AB98C62B2835DF884C0D87C646C FILE: 02. Приглашение на закат.flac Size: 34856810 Hash: 6DB1E8D17EB0B7A874CFA104FAB355B7 Accuracy: -m8 Conclusion: CDDA 100% Signature: BFAE2912B3640638CC0A3BE1C096F2B23B6E26BC FILE: 03. Холодно (дуэт с Максимом Галкиным).flac Size: 22346974 Hash: D4A058EEAD94C91E77ABF71087CE8E09 Accuracy: -m8 Conclusion: CDDA 100% Signature: F611789A31E93339F7C25B224081142519679125 FILE: 04. Доченька.flac Size: 31905947 Hash: 91DF79607DF01BF9B15B833A4763789A Accuracy: -m8 Conclusion: CDDA 100% Signature: 7AB4CC28876632A8C286BC1F594C33B9307E9BBA FILE: 05. Я пою.flac Size: 35569119 Hash: F91F4A14D09386DE3A5D9D39B02CE984 Accuracy: -m8 Conclusion: CDDA 100% Signature: 61D80145C394D2147CF6E289BEDF6C0EF1863BFD FILE: 06. Ухожу.flac Size: 36636353 Hash: F368326CD238EE904317F1EB4D90ED33 Accuracy: -m8 Conclusion: CDDA 100% Signature: 9F9CBCDF80767A98DFCE7BB43CC112227155D71D FILE: 07. Игра.flac Size: 31514003 Hash: 58092C369A362005416AB9A85D26915F Accuracy: -m8 Conclusion: CDDA 100% Signature: 5F111AC6190874B5F2CB7823DBC4B0D2CE3CD43E FILE: 08. Миллениум.flac Size: 24772361 Hash: B51FE1970634B139F707989C0167F0D6 Accuracy: -m8 Conclusion: CDDA 99% Signature: DCD24AE1382EEE77FE8E7F3E910A9EAD2DB73ACA FILE: 09. Только не назад.flac Size: 28424400 Hash: DDBDBD5A7FAD4715E4A4898480FDAE8D Accuracy: -m8 Conclusion: CDDA 100% Signature: CC10EA165E539941322908221B94EAEB5F6290E2 FILE: 10. Позови меня с собой.flac Size: 35303634 Hash: 7F5F171A1822BF9CFCDFEFC93A44779A Accuracy: -m8 Conclusion: CDDA 99% Signature: 4B3ECF804D59FD5E5CB2398D6E6E8C1E91298787 FILE: 11. Исчезнет грусть.flac Size: 28671754 Hash: 12FD41058F2136EAB6DC329E3DBC0D0F Accuracy: -m8 Conclusion: CDDA 100% Signature: 075EBA9DCE90284E02E036C1FD3CAEFB2C82660A FILE: 12. А ты не знал.flac Size: 29464861 Hash: 9CEC4F6B24C7A6CEFE4C9FC17D7B4746 Accuracy: -m8 Conclusion: CDDA 100% Signature: C951EBF082C82FF8FE3DA8174168A134921FC74A FILE: 13. Белый снег.flac Size: 25910681 Hash: 8806C2E8E7FDEB9DF8A88A3E71EE6A53 Accuracy: -m8 Conclusion: CDDA 100% Signature: 28C7B0819D448D82F33D146838FD1610B8DA6168 FILE: 14. Примадонна.flac Size: 19811771 Hash: 08F1D35438F998F2C2484D15432D5F7D Accuracy: -m8 Conclusion: CDDA 100% Signature: 85AEC49BD6FD90E7CB605D74380A8DC9AE24F1D1 FILE: 15. Свеча горела на столе.flac Size: 30212544 Hash: 2871699CE9DE10221846675722994CD9 Accuracy: -m8 Conclusion: CDDA 100% Signature: 0F000B7EFC0B4D4A95BFBA187837A80B994D3EF0 FILE: 16. Голубка.flac Size: 28888274 Hash: C208E806D92CE15331C201D1200502B5 Accuracy: -m8 Conclusion: CDDA 100% Signature: C6E12B344C3C0C856BDEBFA0FE73AAE42B836A9A FILE: 17. Большак.flac Size: 36612771 Hash: FBF78FD9126757160E1DFB3F69D3DD4C Accuracy: -m8 Conclusion: CDDA 99% Signature: 3A316481E0D1037FF2A5420A689DAAE1537039C6 FILE: 18. Мэри.flac Size: 33309170 Hash: BFBC4EFA1F987CC364A3BA9141C150E5 Accuracy: -m8 Conclusion: CDDA 100% Signature: 202D486AD6B0B3265484D94A57AB9A8366E2EB84 FILE: 19. Не делайте мне больно, господа.flac Size: 25270559 Hash: 497A1D0F837A9FD3B92FC3A3BD675CD2 Accuracy: -m8 Conclusion: CDDA 100% Signature: 23D3A0F9C2BE64B703C6CE01D4F31B9966B126B5 FILE: 20. Бессонница.flac Size: 29273968 Hash: 3CBF776C830D275E792B2F4109678B6B Accuracy: -m8 Conclusion: CDDA 100% Signature: 44807F79747B5A9519E1AE1F1FB4DB6D2898283A FILE: 21. Настоящий полковник.flac Size: 33833645 Hash: 8EC02C65861DF086197F366C1ACFED71 Accuracy: -m8 Conclusion: CDDA 100% Signature: 064488F5549421CA072BD13B39B91739BDA7D1E5 FILE: 22. Так иди же сюда.flac Size: 26104632 Hash: F23626D84BEC300C571C0EC930EB6940 Accuracy: -m8 Conclusion: CDDA 100% Signature: 71F794D070D43B378F98F7A9E2FFA11F79B76AF6 FILE: 23. Сильная женщина.flac Size: 28381954 Hash: 4BD2FBA3418B9C765D767707FB77F08B Accuracy: -m8 Conclusion: CDDA 100% Signature: 3B91ED7DE18D8BFA5F60BAED1CCF9868CEF52AF9 FILE: 24. Колдун.flac Size: 24739688 Hash: 19A1FDCA87DE32310D5B2881493031C7 Accuracy: -m8 Conclusion: CDDA 100% Signature: 496E9DECB335A44936ABB5D49FE028B8D23E2C17 FILE: 25. Грабитель.flac Size: 24372083 Hash: F9A55BB2E10F4F17A9F508566B275635 Accuracy: -m8 Conclusion: CDDA 100% Signature: D9B5432CF170FD0A18892C9D64BCBE283CBE353C FILE: 26. Между небом и землей.flac Size: 24108817 Hash: E173D651CEEBE517CC5C12CDC009A2BD Accuracy: -m8 Conclusion: CDDA 99% Signature: 66DFA25A88346E8F9D53977BC65EA01EDADE6E76 FILE: 27. Придумай что-нибудь.flac Size: 19778615 Hash: C25BD7A3BE427C4D265AECC895A67D34 Accuracy: -m8 Conclusion: CDDA 100% Signature: C5E85B32D563323E2D8A09D5A33DD15617C58D5B FILE: 28. Пропади ты пропадом, милый.flac Size: 26616702 Hash: 8DA65EF460F4E0CE9BA5F679239832DC Accuracy: -m8 Conclusion: CDDA 100% Signature: 1A74E85534748772F2DE256D5F61520283F47094 FILE: 29. Чао.flac Size: 23356367 Hash: 7B5BF8EAB39BCC2DC2733DDC7A252AF0 Accuracy: -m8 Conclusion: CDDA 100% Signature: 7C7F143AC4A72801C1872056577F5880049CCCA9 FILE: 30. Любимчик Пашка.flac Size: 21846192 Hash: 10DB712A26A71F4F17FB17F207758737 Accuracy: -m8 Conclusion: CDDA 100% Signature: 08705597C7CB7A2E9569CD3AA068EE4F261E245A FILE: 31. Птица певчая.flac Size: 28651441 Hash: 0BA3EA2AECA0251F682F11AE23A36361 Accuracy: -m8 Conclusion: CDDA 100% Signature: 6B82F7610E3F84F0F714955EBFAA0543A626BF67 FILE: 32. Я тебя поцеловала.flac Size: 21117516 Hash: CE3079333A66ED63AA3F7CBCBCDA8B07 Accuracy: -m8 Conclusion: CDDA 100% Signature: 194B76EC7169B9508C964F0E9829D2F4E06982AD FILE: 33. Найти меня.flac Size: 32633527 Hash: E6415AF43C9AAF7FF3D127B41C8C7E09 Accuracy: -m8 Conclusion: CDDA 100% Signature: 20DD2111BB7042C272D4602BFDCA277106C5C1CE FILE: 34. Окраина.flac Size: 35564250 Hash: 498B79CA8A0A3AA93C15FD17B68A8F57 Accuracy: -m8 Conclusion: CDDA 99% Signature: 7A9EDD32C9696ED818DFB26AF8B2B3B36229C22F FILE: 35. Святая ложь.flac Size: 37465583 Hash: 5CC5F71B8879921934DE1DAF56F745C9 Accuracy: -m8 Conclusion: CDDA 100% Signature: 10C3821801AFCD3CD526D6A387966F791721D271 FILE: 36. Терема.flac Size: 36717322 Hash: 396615DAF12E76071BE0342A700BCC4D Accuracy: -m8 Conclusion: CDDA 100% Signature: 7F6D9A5D4833FEB7572F400C2C72FA066AE04BD1 FILE: 37. Возвращение.flac Size: 27076841 Hash: C14B96150DE53449C9DAB9E599F678BC Accuracy: -m8 Conclusion: CDDA 100% Signature: 58060731AD4A3A083EAD5551448518797BD89103 FILE: 38. Жди и помни меня.flac Size: 31030276 Hash: 1C543785C44C6F7B5EF4FBA906E3EEC9 Accuracy: -m8 Conclusion: CDDA 100% Signature: C5F753DC62D6C72C28C1D1DBE395928D71C63AAD FILE: 39. Этот мир.flac Size: 17663077 Hash: 8A1E894B28726312E45B65DD1D71105F Accuracy: -m8 Conclusion: CDDA 99% Signature: 83ADB9EFA7EDBA4514E1889BBD6C1F096B412D3B FILE: 40. Как тревожен этот путь.flac Size: 24887542 Hash: 1B20B557166646D9C5D89FC4CA46171D Accuracy: -m8 Conclusion: CDDA 100% Signature: FCCCC3C856B1D582C215EB699108F2F21E03AD23 FILE: 41. Арлекино.flac Size: 29541611 Hash: 52136EBBB7F9E30864FC589D1F1CA8F3 Accuracy: -m8 Conclusion: CDDA 100% Signature: 97C5573B8E794AF890FDE73E24AF706AA81DE522 FILE: 42. Всё могут короли.flac Size: 22340562 Hash: 1277ACA48204D918DA30F4D6C004FE63 Accuracy: -m8 Conclusion: CDDA 99% Signature: 305EB6E3C88EF269200E313C08EF8A8B6F1C2FBA FILE: 43. Держи меня, соломинка.flac Size: 30171876 Hash: 13D38DFF2CCD505ED4CE34CFFC9EF6C5 Accuracy: -m8 Conclusion: CDDA 100% Signature: 87308DE364A1C5E1DAEFF339846AB46D32DD8712 FILE: 44. Ты возьми меня с собой.flac Size: 20357652 Hash: D17A5B3049EFB993800B446B11BA1032 Accuracy: -m8 Conclusion: CDDA 100% Signature: D20AC073F0B220F9785DCA16C5B47F11547E01B8 FILE: 45. Не отрекаются любя.flac Size: 25393367 Hash: 467EB3AB09027ACBE88D06A619AFDC7B Accuracy: -m8 Conclusion: CDDA 100% Signature: 043C905BDEAD6556BEB0D3066AF1EA21A718DB1D FILE: 46. Куда уходит детство.flac Size: 34178395 Hash: 51DFC01E939FDB0F2DF591FE9CE05696 Accuracy: -m8 Conclusion: CDDA 100% Signature: 0EFF1C8F2A8EB2C6D893A92B58D0CEDA53066F62 FILE: 47. Песенка про меня.flac Size: 23179820 Hash: 632FFF28900979B5156BFF9312E3DD30 Accuracy: -m8 Conclusion: CDDA 100% Signature: 1CC29675A4AE6FC52D4FC04681FBD3ECD87F7EC7 FILE: 48. Звёздное лето.flac Size: 32385162 Hash: 288FF417F06451A5477FA776FFCDB0D9 Accuracy: -m8 Conclusion: CDDA 100% Signature: EBBC868E5391AF0DE395AE879EE937A5494B6A2F FILE: 49. Не обещай.flac Size: 20832404 Hash: 03C35AF2CF8C04DC415A732DEEE83A38 Accuracy: -m8 Conclusion: CDDA 100% Signature: 23B4352EDB0587545F1C1B69E1EA922BF51CA400 FILE: 50. Очень хорошо.flac Size: 23144183 Hash: CCEB6959BC0805855BA2AC77D2EE4677 Accuracy: -m8 Conclusion: CDDA 100% Signature: F66AF6D321F09E1EE703C560DBD1F3D811C104A1 FILE: 51. Куда уехал цирк.flac Size: 17201834 Hash: 4F2C4C748F700244CB65C89C943B385C Accuracy: -m8 Conclusion: CDDA 100% Signature: DF7DAC2870F810D64F36A6FA661DF43359175DA9 FILE: 52. Песенка первоклассника.flac Size: 17285369 Hash: D68A11DC7D830DDCD0E7ACF95B1AA9F4 Accuracy: -m8 Conclusion: CDDA 100% Signature: 41EE3B894DE8FC07ED636C4BC61DC6414B3B6352 FILE: 53. Волшебник-недоучка.flac Size: 21815445 Hash: ED25374E5A94446A356532D6D688410C Accuracy: -m8 Conclusion: CDDA 100% Signature: F6A4D93CF2EE7D794F7A67359AAFA56D141A6648 FILE: 54. Найди себе друга.flac Size: 18993114 Hash: 32FA56E9E1849E6F4F112CF0205D8772 Accuracy: -m8 Conclusion: CDDA 99% Signature: 2D4A5F389C6F0020C96558FF77BCE1B3ECF2DC66 FILE: 55. Улетай, туча.flac Size: 32446909 Hash: BAFC7DCE3C3638177E8344D7CF1DC024 Accuracy: -m8 Conclusion: CDDA 100% Signature: 1B08EC36185659E7548A9EE3E286E2BB8FF083AE FILE: 56. Поднимись над суетой.flac Size: 30908692 Hash: DA907326888628C3FE6BF0C0EDD7D271 Accuracy: -m8 Conclusion: CDDA 100% Signature: 2EE1F59A7B8D5969DF85A8946C2A845A0C018511 FILE: 57. Что было однажды.flac Size: 24609613 Hash: D120DB241A2184278A5D4381C05B1E63 Accuracy: -m8 Conclusion: CDDA 100% Signature: 1571DCC01B6D18916F0EDE2D39BA4610EBCBD692 FILE: 58. Посидим, поокаем.flac Size: 19573699 Hash: 6CEC513E8B73F4157AFBCE8DCB51E887 Accuracy: -m8 Conclusion: CDDA 99% Signature: 23310971F14B2DEA5E3BCE735DEB44B88948A62E FILE: 59. Любовь одна виновата.flac Size: 23597849 Hash: BEC250DA6BD9BC46C4684839F4AC30EF Accuracy: -m8 Conclusion: CDDA 100% Signature: 09ABDBB50A68145BB58D14028A61869888CB8B50 FILE: 60. Женщина, которая поёт.flac Size: 24479510 Hash: 1362D56202FBD5F4A9DC871A2320D187 Accuracy: -m8 Conclusion: CDDA 100% Signature: A4BB285957AB1293E056292DCF5A4ED8BFAC5EBB foobar2000 1.5.5 / Замер динамического диапазона (DR) 1.1.1 -------------------------------------------------------------------------------- Анализ: Алла Пугачёва / Золотые песни. Часть 2 -------------------------------------------------------------------------------- DR Пики RMS Продолжительность трека -------------------------------------------------------------------------------- DR12 -0.50 дБ -13.51 дБ 3:53 01-Дожди DR10 -0.10 дБ -12.28 дБ 4:45 02-Приглашение на закат DR11 -0.50 дБ -12.36 дБ 3:09 03-Холодно DR11 -0.10 дБ -12.56 дБ 4:18 04-Доченька DR11 -0.10 дБ -13.50 дБ 5:13 05-Я пою DR12 -0.10 дБ -13.87 дБ 4:39 06-Ухожу DR11 -0.10 дБ -14.37 дБ 4:50 07-Игра DR11 -0.10 дБ -14.00 дБ 3:17 08-Миллениум DR12 -0.10 дБ -13.84 дБ 3:36 09-Только не назад DR12 -0.50 дБ -13.39 дБ 4:52 10-Позови меня с собой DR10 -0.50 дБ -12.40 дБ 3:43 11-Исчезнет грусть DR10 -0.50 дБ -13.07 дБ 4:09 12-А ты не знал DR10 -0.10 дБ -13.54 дБ 4:00 13-Белый снег DR11 -0.50 дБ -14.97 дБ 3:02 14-Примадонна DR11 -0.50 дБ -14.39 дБ 4:46 15-Свеча горела на столе DR11 -0.10 дБ -14.06 дБ 4:22 16-Голубка DR11 -0.10 дБ -13.92 дБ 5:33 17-Большак DR12 -0.10 дБ -13.62 дБ 4:33 18-Мэри DR10 -0.10 дБ -12.17 дБ 3:24 19-Не делайте мне больно, господа DR11 -0.10 дБ -12.87 дБ 3:57 20-Бессонница DR11 -0.40 дБ -13.43 дБ 4:43 21-Настоящий полковник DR11 -0.10 дБ -12.51 дБ 3:32 22-Так иди же сюда DR11 -0.50 дБ -13.84 дБ 3:59 23-Сильная женщина DR11 -0.10 дБ -12.53 дБ 3:18 24-Колдун DR10 -0.10 дБ -11.34 дБ 3:11 25-Грабитель DR13 -0.10 дБ -14.96 дБ 3:16 26-Между небом и землёй DR12 -0.10 дБ -14.03 дБ 2:47 27-Придумай что-нибудь DR13 -0.10 дБ -14.34 дБ 3:45 28-Пропади ты пропадом, милый DR13 -0.10 дБ -14.91 дБ 3:10 29-Чао DR13 -0.10 дБ -14.42 дБ 3:13 30-Любимчик Пашка DR13 -0.50 дБ -14.69 дБ 4:15 31-Птица певчая DR11 -0.10 дБ -12.51 дБ 2:49 32-Я тебя поцеловала DR11 -0.10 дБ -12.62 дБ 4:23 33-Найти меня DR11 -0.10 дБ -13.37 дБ 4:49 34-Окраина DR12 -0.32 дБ -14.29 дБ 5:19 35-Святая ложь DR13 -0.10 дБ -14.56 дБ 5:17 36-Терема DR12 -0.10 дБ -14.17 дБ 3:59 37-Возвращение DR13 -1.12 дБ -16.41 дБ 4:34 38-Жди и помни меня DR10 -0.50 дБ -11.90 дБ 2:28 39-Этот мир DR12 -0.10 дБ -14.62 дБ 3:53 40-Как тревожен этот путь DR12 -0.50 дБ -15.96 дБ 4:34 41-Арлекино DR12 -0.50 дБ -13.61 дБ 3:00 42-Всё могут короли DR14 -0.10 дБ -15.39 дБ 4:13 43-Держи меня, соломинка DR13 -2.26 дБ -17.20 дБ 2:51 44-Ты возьми меня с собой DR10 -1.11 дБ -14.76 дБ 4:08 45-Не отрекаются любя DR11 -0.10 дБ -12.84 дБ 4:47 46-Куда уходит детство DR11 -3.35 дБ -16.74 дБ 3:37 47-Песенка про меня DR13 -0.10 дБ -15.40 дБ 4:40 48-Звёздное лето DR12 -0.50 дБ -13.19 дБ 2:59 49-Не обещай DR10 -1.60 дБ -13.94 дБ 3:20 50-Очень хорошо DR15 -0.50 дБ -17.59 дБ 2:36 51-Куда уехал цирк DR13 -1.00 дБ -15.74 дБ 2:33 52-Песенка первоклассника DR13 -0.10 дБ -14.64 дБ 3:21 53-Волшебник-недоучка DR12 -0.10 дБ -12.95 дБ 2:34 54-Найди себе друга DR14 0.00 дБ -15.32 дБ 4:58 55-Улетай, туча DR13 -1.04 дБ -15.80 дБ 4:19 56-Поднимись над суетой DR11 -1.80 дБ -13.98 дБ 3:36 57-Что было однажды DR9 -0.10 дБ -12.17 дБ 3:26 58-Посидим, поокаем DR12 -0.02 дБ -13.85 дБ 3:15 59-Любовь одна виновата DR10 -2.03 дБ -15.07 дБ 4:16 60-Женщина, которая поёт -------------------------------------------------------------------------------- Количество треков: 60 Реальные значения DR: DR12 Частота: 44100 Гц Каналов: 2 Разрядность: 16 Битрейт: 747 кбит/с Кодек: FLAC ================================================================================

Всего файлов в раздаче: 147 
01. Я летала\01. Я летала.flac24.32 MB
01. Я летала\02. Не звони.flac18.92 MB
01. Я летала\03. Просто.flac22.79 MB
01. Я летала\04. Не беспокойся за меня.flac25.00 MB
01. Я летала\05. Нас бьют, мы летаем.flac25.57 MB
01. Я летала\06. Я смогу.flac28.79 MB
01. Я летала\07. Гадалка (дуэт с группой Штар).flac23.93 MB
01. Я летала\08. Опять метель (Solo Version).flac22.44 MB
01. Я летала\09. Тянет сердце руки.flac29.53 MB
01. Я летала\10. Осторожно, листопад!.flac34.66 MB
Показать все файлы

Похожие раздачи по запросу - Алла
2024-05-10 magnet Алла Пугачёва - Коллекция (2024) MP3 1.36 GB ↑ 0 ↓ 0
2024-04-28 magnet Алла Казанцева - Научные открытия для тех, кто любит краткость (2022) MP3 310.38 MB ↑ 0 ↓ 0
2024-04-23 magnet Алла Пугачёва - Коллекция [Remastered] (2024) FLAC 2.24 GB ↑ 1 ↓ 0
2024-04-01 magnet Алла Пугачёва - Я летала [Unofficial Release, Remastered] (2024) FLAC 1.64 GB ↑ 0 ↓ 0
2024-03-29 magnet Алла Пугачёва - P.S [Live Album] (2024) FLAC 640.30 MB ↑ 0 ↓ 0
2024-03-29 magnet Владимир Кузьмин и Алла Пугачёва - Две звезды [Vinyl-Rip] (2023) FLAC 944.59 MB ↑ 0 ↓ 0
2024-03-25 magnet Алла-Такси [01-16 из 16] (2022-2023) WEBRip от Generalfilm | КПК 3.10 GB ↑ 0 ↓ 0

Кто качает (только для создателя раздачи и модераторов): Локальные пиры отсутствуют

Комментарии


Зарегистрируйтесь чтобы добавить комментарий
Торрент клиент
byTorrent - программа для загрузки торрент-файлов.

Скачать byTorrent.exe (1,5 МБ)

Скачать byTorrent.zip (0,6 МБ)

Поддержи torrent.by
российских рублей
(300 российских рублей это 4$)

Обратная связь rss

End game ©