↑↓torrent.by
Поиск
Логин:  Регистрация
Пароль:

Задания особой важности. Операция «Тайфун» [01-04 из 04] (2013) WEB-DLRip 720p от MegaPeer

download Скачать торрент-файл   magnet Магнитная ссылка Размер: 3.42 GB Раздают: 2 Качают: 0 Добавлен: 2024-05-21 20:07
Пиры будут получены из сети DHT
Последний сидер был замечен сегодня в 01:32
Операция "Тайфун" Год выпуска: 2013 Выпущено: Россия / Грин-фильм Жанр: приключения, военный Продолжительность: ~ 00:44:27 серия Перевод: не требуется Режиссер: Петр Амелин В ролях: Богдан Эдуард Трухменёв, Мария Куликова, Сергей Баталов, Марина Казанкова, Андрей Аксенов, Елена Радевич, Андрей Павловец, Александр Ленин, Дмитрий Дячук, Даниил Воропаев Описание: Главный герой картины – капитан Суслов, опытный советский разведчик-диверсант, получает задание уничтожить стратегический склад горючего, расположенный в тылу врага, на оккупированной территории. Задание считается практически невыполнимым, но для Суслова невыполнимых заданий не существует... Качество видео: WEB-DLRip 720p Формат видео: MKV Видео: MPEG-4 AVC, ~2569 kb/s, 1280х720 Аудио: AC-3, 2 ch, 192 kb/s Релиз:
[+] MediaInfo
Общее
Уникальный идентификатор                 : 243694827152735119191056320162858726008 (0xB755EA9F204BA312BF6C0D5BE3DEF278)
Полное имя                               : Operacija.Tayfun.2013.720p.MegaPeer\s.01.mkv
Формат                                   : Matroska
Версия формата                           : Version 2
Размер файла                             : 860 Мбайт
Продолжительность                        : 43 м. 40 с.
Общий поток                              : 2 754 Кбит/сек
Частота кадров                           : 25,000 кадров/сек
Дата кодирования                         : 2015-06-17 07:17:22 UTC
Программа кодирования                    : mkvmerge v6.1.0 ('Old Devil') built on Mar  4 2013 09:10:42
Библиотека кодирования                   : libebml v1.3.0 + libmatroska v1.4.0

Видео
Идентификатор                            : 1
Формат                                   : AVC
Формат/Информация                        : Advanced Video Codec
Профиль формата                          : High@L4
Настройки формата                        : CABAC / 4 Ref Frames
Параметр CABAC формата                   : Да
Параметр RefFrames формата               : 4 кадра
Идентификатор кодека                     : V_MPEG4/ISO/AVC
Продолжительность                        : 43 м. 40 с.
Битрейт                                  : 2 569 Кбит/сек
Ширина                                   : 1 280 пикселей
Высота                                   : 720 пикселей
Соотношение сторон                       : 16:9
Режим частоты кадров                     : Постоянный
Частота кадров                           : 25,000 кадров/сек
Цветовое пространство                    : YUV
Субдискретизация насыщенности            : 4:2:0
Битовая глубина                          : 8 бит
Тип развёртки                            : Прогрессивная
Бит/(Пиксели*Кадры)                      : 0.112
Размер потока                            : 783 Мбайт (91%)
Библиотека кодирования                   : x264 core 142
Настройки программы                      : cabac=1 / ref=3 / deblock=1:0:0 / analyse=0x3:0x113 / me=hex / subme=7 / psy=1 / psy_rd=1.00:0.00 / mixed_ref=1 / me_range=16 / chroma_me=1 / trellis=1 / 8x8dct=1 / cqm=0 / deadzone=21,11 / fast_pskip=1 / chroma_qp_offset=-2 / threads=8 / lookahead_threads=1 / sliced_threads=0 / nr=0 / decimate=1 / interlaced=0 / bluray_compat=0 / constrained_intra=0 / bframes=6 / b_pyramid=2 / b_adapt=1 / b_bias=0 / direct=1 / weightb=1 / open_gop=0 / weightp=2 / keyint=200 / keyint_min=20 / scenecut=0 / intra_refresh=0 / rc_lookahead=40 / rc=2pass / mbtree=1 / bitrate=2569 / ratetol=1.0 / qcomp=0.60 / qpmin=0 / qpmax=69 / qpstep=4 / cplxblur=20.0 / qblur=0.5 / vbv_maxrate=3854 / vbv_bufsize=10279 / nal_hrd=none / filler=0 / ip_ratio=1.40 / aq=1:1.00
Язык                                     : English
Default                                  : Да
Forced                                   : Нет

Аудио
Идентификатор                            : 2
Формат                                   : AC-3
Формат/Информация                        : Audio Coding 3
Коммерческое название                    : Dolby Digital
Идентификатор кодека                     : A_AC3
Продолжительность                        : 43 м. 40 с.
Вид битрейта                             : Постоянный
Битрейт                                  : 192 Кбит/сек
Каналы                                   : 2 канала
Channel layout                           : L R
Частота                                  : 48,0 КГц
Частота кадров                           : 31,250 кадров/сек (1536 SPF)
Метод сжатия                             : С потерями
Размер потока                            : 60,0 Мбайт (7%)
Service kind                             : Complete Main
Default                                  : Да
Forced                                   : Нет
[+] Скриншоты

Всего файлов в раздаче: 4 
s.01.mkv860.18 MB
s.02.mkv876.24 MB
s.03.mkv883.49 MB
s.04.mkv882.73 MB

Похожие раздачи по запросу - Задания особой
Вчера magnet Задания особой важности. Операция «Тайфун» / Серии: 1-4 из 4 [2013, военный, приключения, SATRip-AVC] 1.77 GB ↑ 2 ↓ 0

Комментарии


Зарегистрируйтесь чтобы добавить комментарий
Торрент клиент
byTorrent - программа для загрузки торрент-файлов.

Скачать byTorrent.exe (1,5 МБ)

Скачать byTorrent.zip (0,6 МБ)

Поддержи torrent.by
российских рублей
(300 российских рублей это 4$)

Обратная связь rss

End game ©