↑↓torrent.by
Поиск
Логин:  Регистрация
Пароль:

Сказки Гофмана (2022) WEB-DLRip-AVC от DoMiNo & селезень

download Скачать торрент-файл   magnet Магнитная ссылка Размер: 1.41 GB Добавлен: 2024-05-09 17:00
Пиры будут получены из сети DHT
Последний сидер был замечен 2024-05-19 16:53
Информация о фильме Название: Сказки Гофмана Год выхода: 2022 Жанр: Драма, комедия Режиссер: Тина Баркалая В ролях: Екатерина Вилкова, Евгений Цыганов, Максим Стоянов, Алексей Гуськов, Ксения Кутепова, Наргис Абдуллаева, Наталья Павленкова, Семён Штейнберг, Анна Ардова, Марина Барсукова О фильме: Начало 2000-х. Неприметная девушка Надежда Страхова, как ни странно, замужем. Муж её, Виталик, провинциал, женился на бездетной Надежде ради московской прописки и типовой «хрущёвки» на окраине Москвы. Надежда работает на двух работах, чтобы содержать свою маленькую семью: по утрам в районной библиотеке и вечерами в театральном гардеробе. Однажды её жизнь резко меняется. Хозяин очередного пальто оказывается из мира рекламы и кино. Он замечает, что у Надежды очень красивые руки с невероятной пластикой. Это неожиданно меняет жизнь Надежды самым радикальным образом. Страна: Россия Студия: «Пан-Атлантик» Продолжительность: 01:38:10 Субтитры: Русские ((AI) Full) Файл Формат: Matroska Качество: WEB-DLRip-AVC Видео: 1024x428 at 24.000 fps, x264@L4.1, ~1672 kbps Аудио: AC3, 6 ch, ~384 kbps - | Русский | Формат субтитров: softsub (SRT) ***Рип от: -=DoMiNo=-
[+] M/Ix264 : frame I:1045 Avg QP:16.22 size: 50916 x264 : frame P:28482 Avg QP:17.27 size: 19013 x264 : frame B:111838 Avg QP:18.81 size: 5692 x264 : consecutive B-frames: 1.7% 2.0% 6.8% 19.2% 13.0% 16.5% 37.2% 2.7% 0.4% 0.2% 0.1% 0.1% 0.1% General Unique ID : 276882693564158666903703069941300031911 (0xD04DAAC48F950503BF4C8887536D71A7) Complete name : I:Сказки.Гофмана.2022.WEB-DLRip.x264.seleZen.mkv Format : Matroska Format version : Version 4 File size : 1.41 GiB Duration : 1 h 38 min Overall bit rate : 2 058 kb/s Frame rate : 24.000 FPS Movie name : Сказки.Гофмана.2022.WEB-DLRip.x264.seleZen Encoded date : 2024-05-09 10:15:21 UTC Writing application : mkvmerge v84.0 ('Sleeper') 64-bit Writing library : libebml v1.4.5 + libmatroska v1.7.1 Cover : Yes Attachments : cover.jpg / small_cover.jpg Video ID : 1 Format : AVC Format/Info : Advanced Video Codec Format profile : High@L4.1 Format settings : CABAC / 10 Ref Frames Format settings, CABAC : Yes Format settings, Reference : 10 frames Codec ID : V_MPEG4/ISO/AVC Duration : 1 h 38 min Bit rate : 1 672 kb/s Width : 1 024 pixels Height : 428 pixels Display aspect ratio : 2.39:1 Frame rate mode : Constant Frame rate : 24.000 FPS Color space : YUV Chroma subsampling : 4:2:0 Bit depth : 8 bits Scan type : Progressive Bits/(Pixel*Frame) : 0.159 Stream size : 1.15 GiB (81%) Title : -=DoMiNo=- Writing library : x264 core 164 r3190 -DoMiNo Encoding settings : cabac=1 / ref=10 / deblock=1:0:0 / analyse=0x3:0x133 / me=umh / subme=10 / psy=1 / psy_rd=1.00:0.00 / mixed_ref=1 / me_range=32 / chroma_me=1 / trellis=2 / 8x8dct=1 / cqm=0 / deadzone=21,11 / fast_pskip=0 / chroma_qp_offset=-2 / threads=13 / lookahead_threads=3 / sliced_threads=0 / nr=0 / decimate=1 / interlaced=0 / bluray_compat=0 / constrained_intra=0 / bframes=12 / b_pyramid=2 / b_adapt=2 / b_bias=0 / direct=3 / weightb=1 / open_gop=0 / weightp=2 / keyint=240 / keyint_min=24 / scenecut=40 / intra_refresh=0 / rc_lookahead=60 / rc=crf / mbtree=0 / crf=18.5 / qcomp=0.60 / qpmin=0 / qpmax=69 / qpstep=4 / vbv_maxrate=50000 / vbv_bufsize=62500 / crf_max=0.0 / nal_hrd=none / filler=0 / ip_ratio=1.35 / pb_ratio=1.25 / aq=3:1.00 Language : Russian Default : Yes Forced : No Color range : Limited Color primaries : BT.709 Transfer characteristics : BT.709 Matrix coefficients : BT.709 Audio ID : 2 Format : AC-3 Format/Info : Audio Coding 3 Commercial name : Dolby Digital Codec ID : A_AC3 Duration : 1 h 38 min Bit rate mode : Constant Bit rate : 384 kb/s Channel(s) : 6 channels Channel layout : L R C LFE Ls Rs Sampling rate : 48.0 kHz Frame rate : 31.250 FPS (1536 SPF) Compression mode : Lossy Stream size : 270 MiB (19%) Language : Russian Service kind : Complete Main Default : Yes Forced : No Dialog Normalization : -31 dB cmixlev : -4.5 dB surmixlev : -6 dB dialnorm_Average : -31 dB dialnorm_Minimum : -31 dB dialnorm_Maximum : -31 dB Text ID : 3 Format : UTF-8 Codec ID : S_TEXT/UTF8 Codec ID/Info : UTF-8 Plain Text Duration : 1 h 33 min Bit rate : 101 b/s Frame rate : 0.252 FPS Count of elements : 1419 Stream size : 69.8 KiB (0%) Title : Full Language : Russian Default : No Forced : No Menu 00:00:00.000 : en:Chapter 01 00:05:50.000 : en:Chapter 02 00:11:40.000 : en:Chapter 03 00:17:30.000 : en:Chapter 04 00:23:20.000 : en:Chapter 05 00:29:10.000 : en:Chapter 06 00:35:00.000 : en:Chapter 07 00:40:50.000 : en:Chapter 08 00:46:40.000 : en:Chapter 09 00:52:30.000 : en:Chapter 10 00:58:20.000 : en:Chapter 11 01:04:10.000 : en:Chapter 12 01:10:00.000 : en:Chapter 13 01:15:50.000 : en:Chapter 14 01:21:40.000 : en:Chapter 15 01:27:30.000 : en:Chapter 16 01:33:20.000 : en:Chapter 17
Релиз: Присоединяйся к: Кликай на баннеры.

Всего файлов в раздаче: 1 
Сказки.Гофмана.2022.WEB-DLRip.x264.seleZen.mkv1.41 GB

Похожие раздачи по запросу - Сказки
2024-05-18 magnet Сказки Гофмана (2022) WEB-DL 1080p от ExKinoRay 4.18 GB ↑ 0 ↓ 0
2024-05-09 magnet Сказки Гофмана (2022) WEB-DLRip от MegaPeer 1.46 GB ↑ 0 ↓ 0
2024-05-09 magnet Редьярд Киплинг - Сказки старой Англии (2024) PDF 82.58 MB ↑ 0 ↓ 0
2024-05-09 magnet Сказки Гофмана (2022) WEB-DL 1080p 4.04 GB ↑ 0 ↓ 0
2024-05-09 magnet Сказки Гофмана (2022) WEB-DL 720p 2.11 GB ↑ 0 ↓ 0
2024-04-24 magnet Сборник - Среди троллей и гномов. Сказки скандинавских писателей (2024) PDF 258.24 MB ↑ 0 ↓ 0
2024-04-16 magnet Серия книг - «Злые сказки Кристины Генри» [12 книг] (2019-2024) FB2 26.62 MB ↑ 0 ↓ 0

Комментарии


Зарегистрируйтесь чтобы добавить комментарий
Торрент клиент
byTorrent - программа для загрузки торрент-файлов.

Скачать byTorrent.exe (1,5 МБ)

Скачать byTorrent.zip (0,6 МБ)

Поддержи torrent.by
российских рублей
(300 российских рублей это 4$)

Обратная связь rss

End game ©