↑↓torrent.by
Поиск
Логин:  Регистрация
Пароль:

Без глазури: История поп-тартсов / Незамороженный / Unfrosted (2024) WEB-DL 1080p от New-Team | P

download Скачать торрент-файл   magnet Магнитная ссылка Размер: 4.16 GB Раздают: 1 Качают: 0 Добавлен: 2024-05-09 17:00
Пиры будут получены из сети DHT
Последний сидер был замечен сегодня в 00:57
Без глазури: История поп-тартсов / Незамороженный / Unfrosted Год выпуска: 2024 Выпущено: США / Columbus 81 Productions, Netflix Studios Жанр: комедия, биография, история Режиссер: Джерри Сайнфелд / Jerry Seinfeld В ролях: Джерри Сайнфелд, Хью Грант, Эми Шумер, Джим Гэффиган, Мелисса Маккарти, Джеймс Марсден, Кристиан Слейтер, Рэйчел Харрис, Эфквейк, Дэн Леви (II), Томас Леннон, Седрик «Развлекатель», Мария Бакалова, Билл Бёрр, Фред Армисен, Джек МакБрайер, Дин Норрис, Эдриан Мартинес, Бобби Мойнихан, Питер Динклэйдж, Дэррелл Хэммонд, Седрик Ярброу, Себастьян Манискалко, Джон Хэмм, Джон Слэттери, Джефф Льюис, Джордж Уоллес, Эндрю Дэйли, Ронни Чиэн, Тони Хэйл, Патрик Уорбертон, Дрю Тарвер, Макс Гринфилд, Кайл Данниган, Гордон Тарпли, Бетт Бентли, Джон Форест, Джеррен Холл, Уилл Аллан, Томас Силкотт, Исаак Бай, Имон Дж. Рош, Апарна Нанчерла, Александра Вентворт О фильме: Во времена, когда все завтракали молоком и хлопьями, корпорации начали борьбу за производство выпечки, которая изменит мир. Комедия о «Поп-тарт» от Джерри Сайнфелда. Продолжительность: 01:36:15 Перевод: #1: Профессиональный (многоголосый, закадровый) | TVShows (tnx.tron11) #2: Профессиональный (многоголосый, закадровый) | Red Head Sound Субтитры: Русские (full), английские (forced, full, SDH) Раздача от: Автор релиза: JNS82. Формат: MKV Качество: WEB-DL 1080p | NF Видео: MPEG-4 AVC, 1920x1080, 5000 Кбит/с, (16:9), 24,000 fps Аудио #1: 48 kHz, AC3 Dolby Digital, 3/2 (L,C,R,l,r) + LFE ch, ~ 384 kbps | RUS | TVShows Аудио #2: 48 kHz, AC3 Dolby Digital, 2/0 (L,R) ch, ~ 192 kbps | RUS | Red Head Sound Аудио #3: 48 kHz, E-AC3 JOC Dolby Digital, 3/2 (L,C,R,l,r) + LFE ch, ~ 768 kbps | ENG |
[+] MediaInfoОбщее Уникальный идентификатор : 95715599167986749713065003999790474945 (0x48022763413F587F4B0C2507DE21A6C1) Полное имя : D:TorrentsUnfrosted.2024.1080p.NF_от New-Team.mkv Формат : Matroska Версия формата : Version 4 Размер файла : 4,16 Гбайт Продолжительность : 1 ч. 36 м. Режим общего битрейта : Переменный Общий поток : 6 185 Кбит/сек Название фильма : Unfrosted.2024.1080p.NF_от New-Team Дата кодирования : UTC 2024-05-09 13:22:25 Программа кодирования : mkvmerge v79.0 ('Funeral Pyres') 64-bit Библиотека кодирования : libebml v1.4.4 + libmatroska v1.7.1 / Lavf60.16.100 Видео Идентификатор : 1 Формат : AVC Формат/Информация : Advanced Video Codec Профиль формата : Main@L4 Настройки формата : CABAC / 3 Ref Frames Параметр CABAC формата : Да Параметр RefFrames формата : 3 кадра Идентификатор кодека : V_MPEG4/ISO/AVC Продолжительность : 1 ч. 36 м. Вид битрейта : Переменный Битрейт : 5 000 Кбит/сек Максимальный битрейт : 7 500 Кбит/сек Ширина : 1 920 пикселей Высота : 1 080 пикселей Соотношение сторон : 16:9 Режим частоты кадров : Постоянный Частота кадров : 24,000 кадра/сек Цветовое пространство : YUV Субдискретизация насыщенности : 4:2:0 Битовая глубина : 8 бит Тип развёртки : Прогрессивная Бит/(Пиксели*Кадры) : 0.100 Размер потока : 3,25 Гбайт (78%) Библиотека кодирования : x264 core 148 r2727 7d026e8 Настройки программы : cabac=1 / ref=3 / deblock=1:0:0 / analyse=0x1:0x111 / me=umh / subme=10 / psy=1 / psy_rd=1.00:0.00 / mixed_ref=1 / me_range=24 / chroma_me=1 / trellis=2 / 8x8dct=0 / cqm=0 / deadzone=21,11 / fast_pskip=1 / chroma_qp_offset=-2 / threads=6 / lookahead_threads=1 / sliced_threads=0 / nr=0 / decimate=1 / interlaced=0 / bluray_compat=0 / stitchable=1 / constrained_intra=0 / bframes=2 / b_pyramid=0 / b_adapt=2 / b_bias=0 / direct=3 / weightb=1 / open_gop=0 / weightp=2 / keyint=240 / keyint_min=121 / scenecut=0 / intra_refresh=0 / rc_lookahead=48 / rc=2pass / mbtree=1 / bitrate=5000 / ratetol=1.0 / qcomp=0.50 / qpmin=6 / qpmax=51 / qpstep=4 / cplxblur=20.0 / qblur=0.5 / vbv_maxrate=7500 / vbv_bufsize=10000 / nal_hrd=vbr / filler=0 / ip_ratio=1.40 / aq=1:1.00 Язык : English Default : Да Forced : Нет Аудио #1 Идентификатор : 2 Формат : AC-3 Формат/Информация : Audio Coding 3 Коммерческое название : Dolby Digital Идентификатор кодека : A_AC3 Продолжительность : 1 ч. 36 м. Вид битрейта : Постоянный Битрейт : 384 Кбит/сек Каналы : 6 каналов Channel layout : L R C LFE Ls Rs Частота : 48,0 КГц Частота кадров : 31,250 кадров/сек (1536 SPF) Метод сжатия : С потерями Размер потока : 264 Мбайт (6%) Заголовок : MVO - TVShows Язык : Russian Service kind : Complete Main Default : Да Forced : Нет Аудио #2 Идентификатор : 3 Формат : AC-3 Формат/Информация : Audio Coding 3 Коммерческое название : Dolby Digital Идентификатор кодека : A_AC3 Продолжительность : 1 ч. 36 м. Вид битрейта : Постоянный Битрейт : 192 Кбит/сек Каналы : 2 канала Channel layout : L R Частота : 48,0 КГц Частота кадров : 31,250 кадров/сек (1536 SPF) Метод сжатия : С потерями Размер потока : 132 Мбайт (3%) Заголовок : MVO - Red Head Sound Язык : Russian Service kind : Complete Main Default : Нет Forced : Нет Аудио #3 Идентификатор : 4 Формат : E-AC-3 JOC Формат/Информация : Enhanced AC-3 with Joint Object Coding Коммерческое название : Dolby Digital Plus with Dolby Atmos Идентификатор кодека : A_EAC3 Продолжительность : 1 ч. 36 м. Вид битрейта : Постоянный Битрейт : 768 Кбит/сек Каналы : 6 каналов Channel layout : L R C LFE Ls Rs Частота : 48,0 КГц Частота кадров : 31,250 кадров/сек (1536 SPF) Метод сжатия : С потерями Размер потока : 529 Мбайт (12%) Заголовок : Original Язык : English Service kind : Complete Main Default : Нет Forced : Нет Complexity index : 16 Number of dynamic objects : 15 Bed channel count : 1 канал Bed channel configuration : LFE Текст #1 Идентификатор : 5 Формат : UTF-8 Идентификатор кодека : S_TEXT/UTF8 Идентификатор кодека/Информация : UTF-8 Plain Text Продолжительность : 1 ч. 32 м. Битрейт : 128 бит/сек Count of elements : 1517 Размер потока : 87,1 Кбайт (0%) Заголовок : Язык : Russian Default : Нет Forced : Нет Текст #2 Идентификатор : 6 Формат : UTF-8 Идентификатор кодека : S_TEXT/UTF8 Идентификатор кодека/Информация : UTF-8 Plain Text Продолжительность : 21 м. 41 с. Битрейт : 1 бит/сек Count of elements : 6 Размер потока : 184 байт (0%) Заголовок : Язык : English Default : Нет Forced : Нет Текст #3 Идентификатор : 7 Формат : UTF-8 Идентификатор кодека : S_TEXT/UTF8 Идентификатор кодека/Информация : UTF-8 Plain Text Продолжительность : 1 ч. 26 м. Битрейт : 92 бит/сек Count of elements : 1632 Размер потока : 58,8 Кбайт (0%) Заголовок : Язык : English Default : Нет Forced : Нет Текст #4 Идентификатор : 8 Формат : UTF-8 Идентификатор кодека : S_TEXT/UTF8 Идентификатор кодека/Информация : UTF-8 Plain Text Продолжительность : 1 ч. 32 м. Битрейт : 100 бит/сек Count of elements : 1970 Размер потока : 68,2 Кбайт (0%) Заголовок : Язык : English Default : Нет Forced : Нет

Всего файлов в раздаче: 1 
Unfrosted.2024.1080p.NF_от New-Team.mkv4.16 GB

Похожие раздачи по запросу - Без
2024-05-20 magnet Беги без оглядки / Running Scared (2006) BDRip 1080p by msltel | D, P, A 12.70 GB ↑ 0 ↓ 0
2024-05-18 magnet Без следа [01-22 из 22] (2011-2012) WEB-DLRip-AVC 15.46 GB ↑ 0 ↓ 0
2024-05-14 magnet Без границ / Den grænseløse / Boundless (2024) WEB-DLRip от New-Team | P2 | ViruseProject 1.46 GB ↑ 0 ↓ 0
2024-05-13 magnet Безграничное / Без границ / Den graenselose (2024) WEB-DL 1080p | ViruseProject 6.60 GB ↑ 0 ↓ 0
2024-05-10 magnet Без глазури: История поп-тартсов / Незамороженный / Unfrosted (2024) WEB-DLRip от MegaPeer | P | TVShows, Red Head Sound 1.46 GB ↑ 0 ↓ 0
2024-05-10 magnet Без глазури / Незамороженный / Unfrosted (2024) WEB-DLRip 720p от DoMiNo | P | Red Head Sound 2.34 GB ↑ 0 ↓ 0
2024-05-07 magnet Без глазури / Без глазурі / Unfrosted (2024) WEB-DL 1080p | D | Netflix | UKR 4.63 GB ↑ 0 ↓ 0

Кто качает (только для создателя раздачи и модераторов):
ПользовательIP:портОтдалПринялОстатокСидируетТоррент клиентОбновился
1 Spadar 37.215.34.240:51460 56.91 MB 0.00 B 0.00 B да -UT360W- 00:57 2024-05-22

Комментарии


Зарегистрируйтесь чтобы добавить комментарий
Торрент клиент
byTorrent - программа для загрузки торрент-файлов.

Скачать byTorrent.exe (1,5 МБ)

Скачать byTorrent.zip (0,6 МБ)

Поддержи torrent.by
российских рублей
(300 российских рублей это 4$)

Обратная связь rss

End game ©