↑↓torrent.by
Поиск
Логин:  Регистрация
Пароль:

Наклз / Knuckles [S01] (2024) WEB-DLRip-AVC от DoMiNo & селезень | D, P | Red Head Sound, HDRezka Studio, LostFilm

download Скачать торрент-файл   magnet Магнитная ссылка Размер: 2.93 GB Раздают: 0 Качают: 2 Добавлен: 2024-05-09 17:00
Пиры будут получены из сети DHT
Последний сидер был замечен 2024-05-13 12:00
Информация о фильме Название: Наклз Оригинальное название: Knuckles Год выпуска: 2024 Жанр: Фантастика, фэнтези, боевик, комедия, приключения, семейный Режиссёр: Кэрол Бенкер, Брэндон Трост В ролях: Идрис Эльба, Адам Палли, Джейми Барбакофф, Тони Коклан, Бен Шварц, Дэниэл Сингх, Коллин О’Шонесси, Альфредо Таварес, Адам Керр Описание: Сериал Наклз спин-офф серии фильмов "Соник в кино". Красная ехидна Наклз вступает в неожиданное партнёрство с полицейским Уэйдом Уипплом. Наклз соглашается стать наставником Уэйда и делится с ним своими уникальными приёмами воина. Вместе они принимаются за разгадывание сложных преступлений и борются с преступностью, в которую они втянуты из-за их совместных усилий. Страна: США, Япония Продолжительность: 6 x ~ 00:35:00 Перевод 1: Дубляж (неофициальный) | Red Head Sound Перевод 2: Профессиональный многоголосый (закадровый) | HDRezka Studio Перевод 3: Профессиональный многоголосый (закадровый) | LostFilm Субтитры: Русские (Forced, Full), Английские (Full, SDH) Файл Формат: Matroska Качество: WEB-DLRip-AVC Видео: 1024x426 at 23.976 fps, x264@L4.1, ~1400 kbps Аудио 1: AC3, 6 ch, ~448 kbps - | Русский | | Red Head Sound Аудио 2: AC3, 2 ch, ~192 kbps - | Русский | | HDRezka Studio Аудио 3: AC3, 2 ch, ~192 kbps - | Русский | | LostFilm Формат субтитров: softsub (SRT) ***Рип от: -=DoMiNo=-
[+] M/IGeneral Unique ID : 290589652148326196189968864879988159824 (0xDA9D8800AA57B2896AFBB828CC5FB550) Complete name : S:Knuckles.S01.2024.WEB-DLRip.x264.seleZenKnuckles.S01E01.WEB-DLRip.x264.seleZen.mkv Format : Matroska Format version : Version 4 File size : 624 MiB Duration : 34 min 5 s Overall bit rate : 2 560 kb/s Frame rate : 23.976 FPS Movie name : Knuckles.S01E01.WEB-DLRip.x264.seleZen Encoded date : 2024-05-09 13:00:08 UTC Writing application : mkvmerge v84.0 ('Sleeper') 64-bit Writing library : libebml v1.4.5 + libmatroska v1.7.1 Cover : Yes Attachments : cover.jpg / small_cover.jpg Video ID : 1 Format : AVC Format/Info : Advanced Video Codec Format profile : High@L4.1 Format settings : CABAC / 10 Ref Frames Format settings, CABAC : Yes Format settings, Reference : 10 frames Codec ID : V_MPEG4/ISO/AVC Duration : 33 min 48 s Bit rate : 1 739 kb/s Width : 1 024 pixels Height : 426 pixels Display aspect ratio : 2.40:1 Frame rate mode : Constant Frame rate : 23.976 (24000/1001) FPS Color space : YUV Chroma subsampling : 4:2:0 Bit depth : 8 bits Scan type : Progressive Bits/(Pixel*Frame) : 0.166 Stream size : 420 MiB (67%) Title : -=DoMiNo=- Writing library : x264 core 164 r3190 -DoMiNo Encoding settings : cabac=1 / ref=10 / deblock=1:-2:-1 / analyse=0x3:0x133 / me=umh / subme=10 / psy=1 / psy_rd=1.00:0.15 / mixed_ref=1 / me_range=32 / chroma_me=1 / trellis=2 / 8x8dct=1 / cqm=0 / deadzone=21,11 / fast_pskip=0 / chroma_qp_offset=-3 / threads=13 / lookahead_threads=3 / sliced_threads=0 / nr=0 / decimate=0 / interlaced=0 / bluray_compat=0 / constrained_intra=0 / bframes=10 / b_pyramid=2 / b_adapt=2 / b_bias=0 / direct=1 / weightb=1 / open_gop=0 / weightp=2 / keyint=250 / keyint_min=23 / scenecut=40 / intra_refresh=0 / rc_lookahead=60 / rc=crf / mbtree=0 / crf=19.3 / qcomp=0.60 / qpmin=0 / qpmax=69 / qpstep=4 / vbv_maxrate=50000 / vbv_bufsize=62500 / crf_max=0.0 / nal_hrd=none / filler=0 / ip_ratio=1.40 / pb_ratio=1.30 / aq=2:0.90 Language : English Default : Yes Forced : No Color range : Limited Color primaries : BT.709 Transfer characteristics : BT.709 Matrix coefficients : BT.709 Audio #1 ID : 2 Format : AC-3 Format/Info : Audio Coding 3 Commercial name : Dolby Digital Codec ID : A_AC3 Duration : 34 min 5 s Bit rate mode : Constant Bit rate : 448 kb/s Channel(s) : 6 channels Channel layout : L R C LFE Ls Rs Sampling rate : 48.0 kHz Frame rate : 31.250 FPS (1536 SPF) Compression mode : Lossy Stream size : 109 MiB (18%) Title : Dub -Red Head Sound Language : Russian Service kind : Complete Main Default : Yes Forced : No Dialog Normalization : -31 dB cmixlev : -4.5 dB surmixlev : -6 dB dialnorm_Average : -31 dB dialnorm_Minimum : -31 dB dialnorm_Maximum : -31 dB Audio #2 ID : 3 Format : AC-3 Format/Info : Audio Coding 3 Commercial name : Dolby Digital Codec ID : A_AC3 Duration : 34 min 5 s Bit rate mode : Constant Bit rate : 192 kb/s Channel(s) : 2 channels Channel layout : L R Sampling rate : 48.0 kHz Frame rate : 31.250 FPS (1536 SPF) Compression mode : Lossy Stream size : 46.8 MiB (8%) Title : MVO Language : Russian Service kind : Complete Main Default : No Forced : No Dialog Normalization : -22 dB compr : -0.28 dB ltrtcmixlev : -3.0 dB ltrtsurmixlev : -3.0 dB lorocmixlev : -3.0 dB lorosurmixlev : -3.0 dB dialnorm_Average : -22 dB dialnorm_Minimum : -22 dB dialnorm_Maximum : -22 dB Audio #3 ID : 4 Format : AC-3 Format/Info : Audio Coding 3 Commercial name : Dolby Digital Codec ID : A_AC3 Duration : 34 min 5 s Bit rate mode : Constant Bit rate : 192 kb/s Channel(s) : 2 channels Channel layout : L R Sampling rate : 48.0 kHz Frame rate : 31.250 FPS (1536 SPF) Compression mode : Lossy Stream size : 46.8 MiB (8%) Title : MVO -LostFilm Language : Russian Service kind : Complete Main Default : No Forced : No Dialog Normalization : -31 dB dialnorm_Average : -31 dB dialnorm_Minimum : -31 dB dialnorm_Maximum : -31 dB Text #1 ID : 5 Format : UTF-8 Codec ID : S_TEXT/UTF8 Codec ID/Info : UTF-8 Plain Text Duration : 30 min 59 s Bit rate : 1 b/s Frame rate : 0.007 FPS Count of elements : 13 Stream size : 460 Bytes (0%) Title : Forced Language : Russian Default : No Forced : No Text #2 ID : 6 Format : UTF-8 Codec ID : S_TEXT/UTF8 Codec ID/Info : UTF-8 Plain Text Duration : 32 min 40 s Bit rate : 117 b/s Frame rate : 0.263 FPS Count of elements : 516 Stream size : 28.1 KiB (0%) Title : Rus Language : Russian Default : No Forced : No Text #3 ID : 7 Format : UTF-8 Codec ID : S_TEXT/UTF8 Codec ID/Info : UTF-8 Plain Text Duration : 32 min 37 s Bit rate : 83 b/s Frame rate : 0.324 FPS Count of elements : 635 Stream size : 20.0 KiB (0%) Title : Eng Language : English (US) Default : No Forced : No Text #4 ID : 8 Format : UTF-8 Codec ID : S_TEXT/UTF8 Codec ID/Info : UTF-8 Plain Text Duration : 32 min 50 s Bit rate : 105 b/s Frame rate : 0.396 FPS Count of elements : 781 Stream size : 25.3 KiB (0%) Title : SDH Language : English (US) Default : No Forced : No Menu 00:00:00.000 : en:Chapter 1 00:14:04.117 : en:Chapter 2 00:20:00.450 : en:Chapter 3 00:30:40.172 : en:Chapter 4
Релиз: Присоединяйся к: Кликай на баннеры.

Всего файлов в раздаче: 6 
Knuckles.S01E01.WEB-DLRip.x264.seleZen.mkv624.19 MB
Knuckles.S01E02.WEB-DLRip.x264.seleZen.mkv384.77 MB
Knuckles.S01E03.WEB-DLRip.x264.seleZen.mkv405.66 MB
Knuckles.S01E04.WEB-DLRip.x264.seleZen.mkv514.01 MB
Knuckles.S01E05.WEB-DLRip.x264.seleZen.mkv501.99 MB
Knuckles.S01E06.WEB-DLRip.x264.seleZen.mkv572.63 MB

Похожие раздачи по запросу - Наклз
2024-05-14 magnet Наклз / Knuckles [S01] (2024) UHD WEB-DL-HEVC 2160p | 4K | SDR | D, P 20.06 GB ↑ 0 ↓ 0
2024-05-11 magnet Наклз / Knuckles [S01] (2024) WEB-DL 1080p | D, P 13.16 GB ↑ 0 ↓ 0
2024-05-09 magnet Наклз / Knuckles [S01] (2024) WEB-DL 1080p от Scarabey | D | Red Head Sound 12.46 GB ↑ 0 ↓ 0
2024-05-08 magnet Наклз / Knuckles [S01] (2024) WEB-DL 1080p | D, P 12.78 GB ↑ 0 ↓ 0
2024-05-08 magnet Наклз / Knuckles [01x01-03 из 06] (2024) WEB-DL 1080p от Scarabey | D | Red Head Sound 6.22 GB ↑ 0 ↓ 0
2024-05-06 magnet Наклз / Knuckles [S01] (2024) UHD WEB-DL-HEVC 2160p | 4K | HDR10+ | HDRezka Studio 17.40 GB ↑ 0 ↓ 0
2024-05-06 magnet Наклз / Knuckles [S01] (2024) WEB-DL 1080p | D, P 12.38 GB ↑ 0 ↓ 1

Кто качает (только для создателя раздачи и модераторов):
ПользовательIP:портОтдалПринялОстатокСидируетТоррент клиентОбновился
1 Аноним 148.113.144.37:32000 720.00 kB 293.00 MB 2.86 GB нет -qB4390- 12:36 2024-05-21
2 Аноним 4.72.188.90:44913 0.00 B 0.00 B 2.93 GB нет -qB4390- 12:25 2024-05-21

Комментарии


Зарегистрируйтесь чтобы добавить комментарий
Торрент клиент
byTorrent - программа для загрузки торрент-файлов.

Скачать byTorrent.exe (1,5 МБ)

Скачать byTorrent.zip (0,6 МБ)

Поддержи torrent.by
российских рублей
(300 российских рублей это 4$)

Обратная связь rss

End game ©