↑↓torrent.by
Поиск
Логин:  Регистрация
Пароль:

Годзилла: Минус один / Gojira -1.0 / Godzilla: Minus One (2023) BDRip-AVC от New-Team | P | TVShows

download Скачать торрент-файл   magnet Магнитная ссылка Размер: 2.23 GB Добавлен: 2024-05-09 17:00
Пиры будут получены из сети DHT
Последний сидер был замечен 2024-05-27 18:28
Годзилла: Минус один / Gojira -1.0 / Godzilla: Minus One Год выпуска: 2023 Выпущено: Япония / Robot Communications, Toho Company, Toho Studios Жанр: фантастика, боевик Режиссер: Такаси Ямадзаки / Takashi Yamazaki В ролях: Минами Хамабэ, Рюноскэ Камики, Сакура Андо, Кураносукэ Сасаки, Мунэтака Аоки, Юки Ямада, Хидэтака Ёсиока, Майкл Ариас, Юя Эндо, Кисукэ Иида О фильме: Действие фильма происходит в 1945 году. Япония, которая уже опустошена войной, сталкивается с новой угрозой в виде Годзиллы, в результате чего страна оказывается под угрозой существования. Кайдзю вновь проявляет свою ужасающую и разрушающую силу. Выстоит ли Япония? Продолжительность: 02:04:38 Перевод: Профессиональный (многоголосый, закадровый) | TVShows (tnx.tron11) Субтитры: Русские (full (от rusubmaker)), английские Раздача от: Автор релиза: JNS82. Формат: MKV Качество: BDRip-AVC Видео: MPEG-4 AVC, 1024x428, 2116 Кбит/с, (2,40:1), 23,976 fps Аудио #1: 48 kHz, AC3 Dolby Digital, 3/2 (L,C,R,l,r) + LFE ch, ~ 448 kbps | RUS |
[+] MediaInfoОбщее Уникальный идентификатор : 7473938701259821191462620274342125671 (0x59F6DA0CA83E1068DC8F0B6C3CA6067) Полное имя : D:TorrentsGodzilla.Minus.One.2023.BDRip-AVC_от New-Team_by_JNS82.mkv Формат : Matroska Версия формата : Version 4 Размер файла : 2,23 Гбайт Продолжительность : 2 ч. 4 м. Общий поток : 2 565 Кбит/сек Название фильма : Godzilla.Minus.One.2023.BDRip-AVC_от New-Team_by_JNS82 Дата кодирования : UTC 2024-05-09 08:12:00 Программа кодирования : mkvmerge v79.0 ('Funeral Pyres') 64-bit Библиотека кодирования : libebml v1.4.4 + libmatroska v1.7.1 Видео Идентификатор : 1 Формат : AVC Формат/Информация : Advanced Video Codec Профиль формата : High@L4.1 Настройки формата : CABAC / 12 Ref Frames Параметр CABAC формата : Да Параметр RefFrames формата : 12 кадров Идентификатор кодека : V_MPEG4/ISO/AVC Продолжительность : 2 ч. 4 м. Битрейт : 2 116 Кбит/сек Ширина : 1 024 пикселя Высота : 428 пикселей Соотношение сторон : 2,40:1 Режим частоты кадров : Постоянный Частота кадров : 23,976 (24000/1001) кадра/сек Цветовое пространство : YUV Субдискретизация насыщенности : 4:2:0 Битовая глубина : 8 бит Тип развёртки : Прогрессивная Бит/(Пиксели*Кадры) : 0.201 Размер потока : 1,84 Гбайт (82%) Библиотека кодирования : x264 core 164 r3156+57M NewTeam t_mod_New Настройки программы : cabac=1 / ref=12 / deblock=1:-3:-3 / analyse=0x3:0x133 / me=umh / subme=10 / psy=1 / fade_compensate=0.00 / psy_rd=1.05:0.03 / mixed_ref=1 / me_range=32 / chroma_me=1 / trellis=2 / 8x8dct=1 / cqm=0 / deadzone=21,11 / fast_pskip=0 / chroma_qp_offset=-3 / threads=13 / lookahead_threads=3 / sliced_threads=0 / nr=0 / decimate=0 / interlaced=0 / bluray_compat=0 / constrained_intra=0 / fgo=0 / bframes=10 / b_pyramid=2 / b_adapt=2 / b_bias=0 / direct=3 / weightb=1 / open_gop=0 / weightp=2 / keyint=240 / keyint_min=23 / scenecut=40 / intra_refresh=0 / rc_lookahead=60 / rc=2pass / mbtree=0 / bitrate=2116 / ratetol=1.0 / qcomp=0.60 / qpmin=0:0:0 / qpmax=69:69:69 / qpstep=5 / cplxblur=20.0 / qblur=0.5 / vbv_maxrate=50000 / vbv_bufsize=62500 / nal_hrd=none / filler=0 / ip_ratio=1.40 / pb_ratio=1.30 / aq=1:1.00 / aq-sensitivity=10.00 / aq-factor=1.00:1.00:1.00 / aq2=0 / aq3=0 Default : Да Forced : Нет Аудио Идентификатор : 2 Формат : AC-3 Формат/Информация : Audio Coding 3 Коммерческое название : Dolby Digital Идентификатор кодека : A_AC3 Продолжительность : 2 ч. 4 м. Вид битрейта : Постоянный Битрейт : 448 Кбит/сек Каналы : 6 каналов Channel layout : L R C LFE Ls Rs Частота : 48,0 КГц Частота кадров : 31,250 кадров/сек (1536 SPF) Метод сжатия : С потерями Размер потока : 399 Мбайт (17%) Заголовок : MVO - TVShows Язык : Russian Service kind : Complete Main Default : Да Forced : Нет Текст #1 Идентификатор : 3 Формат : UTF-8 Идентификатор кодека : S_TEXT/UTF8 Идентификатор кодека/Информация : UTF-8 Plain Text Продолжительность : 1 ч. 56 м. Битрейт : 66 бит/сек Count of elements : 1128 Размер потока : 57,2 Кбайт (0%) Заголовок : ] Язык : Russian Default : Нет Forced : Нет Текст #2 Идентификатор : 4 Формат : UTF-8 Идентификатор кодека : S_TEXT/UTF8 Идентификатор кодека/Информация : UTF-8 Plain Text Продолжительность : 1 ч. 56 м. Битрейт : 34 бит/сек Count of elements : 1110 Размер потока : 29,7 Кбайт (0%) Заголовок : Язык : English Default : Нет Forced : Нет Меню 00:00:00.000 : :Chapter 01 00:13:21.509 : :Chapter 02 00:20:07.665 : :Chapter 03 00:30:31.580 : :Chapter 04 00:44:53.566 : :Chapter 05 00:52:28.020 : :Chapter 06 01:05:42.272 : :Chapter 07 01:14:52.279 : :Chapter 08 01:17:59.717 : :Chapter 09 01:25:42.012 : :Chapter 10 01:36:21.025 : :Chapter 11 01:58:58.798 : :Chapter 12

Всего файлов в раздаче: 1 
Godzilla.Minus.One.2023.BDRip-AVC_от New-Team_by_JNS82.mkv2.23 GB

Похожие раздачи по запросу - Годзилла
2024-06-17 magnet Годзилла и Конг: Новая империя / Ґодзілла та Конґ: Нова імперія / Godzilla x Kong: The New Empire (2024) BDRip 1080p | D | UKR 16.33 GB ↑ 0 ↓ 0
2024-06-17 magnet Годзилла и Конг: Новая империя / Godzilla x Kong: The New Empire (2024) BDRip 1080p от Generalfilm | D 11.45 GB ↑ 0 ↓ 0
2024-06-13 magnet Годзилла: Минус один / Gojira -1.0 / Godzilla: Minus One (2023) BDRip-AVC от DoMiNo & селезень | D | Red Head Sound 746.14 MB ↑ 0 ↓ 0
2024-06-13 magnet Годзилла: Минус один / Gojira -1.0 / Godzilla: Minus One (2023) BDRip от MegaPeer | D | Red Head Sound 2.18 GB ↑ 0 ↓ 1
2024-06-13 magnet Годзилла: Минус один / Gojira -1.0 / Godzilla: Minus One (2023) BDRip 1080p от Scarabey | D | Red Head Sound 9.73 GB ↑ 1 ↓ 2
2024-06-13 magnet Годзилла: Минус один / Gojira -1.0 / Godzilla: Minus One (2023) BDRip-AVC от DoMiNo & селезень | D | Red Head Sound 1.79 GB ↑ 0 ↓ 0
2024-06-13 magnet Годзилла: Минус один / Gojira -1.0 / Godzilla: Minus One (2023) BDRip 720p от DoMiNo & селезень | D | Red Head Sound 4.46 GB ↑ 0 ↓ 0

Комментарии


Зарегистрируйтесь чтобы добавить комментарий
Торрент клиент
byTorrent - программа для загрузки торрент-файлов.

Скачать byTorrent.exe (1,5 МБ)

Скачать byTorrent.zip (0,6 МБ)

Поддержи torrent.by
российских рублей
(300 российских рублей это 4$)

Обратная связь rss

End game ©