↑↓torrent.by
Поиск
Логин:  Регистрация
Пароль:

Редкая птица [01 из 04] (2024) WEB-DL 1080p

download Скачать торрент-файл   magnet Магнитная ссылка Размер: 2.14 GB Добавлен: 2024-05-09 17:00
Пиры будут получены из сети DHT
Последний сидер был замечен 2024-05-12 21:56
Информация о фильме Название: Редкая птица Год выхода: 2024 Жанр: Военный, мелодрама Режиссёр: Ольга Музалева В ролях: Катерина Шпица, Александр Горбатов, Екатерина Чаннова, Александра Соловьева, Евгения Лезгинцева, Анастасия Цибизова, Сергей Пускепалис, Михаил Тройник, Кирилл Гребенщиков, Дмитрий Муляр, Кирилл Запорожский, Алексей Коряков, Евгений Кошелев, Ирина Латушко, Василиса Немцова, Егор Горин, Максим Севриновский, Сергей Грузинов, Николай Сердцев, Наталья Батрак, Елена Ворончихина, Кирилл Гончаров, Никита Патуев, Алексей Весёлкин, Артем Шевченко, Илларион Маров, Владислав Кулыгин О фильме: 1943 год. Анна Петрова — боевая лётчица, которая получила тяжёлую травму. Она вернулась в тыл и работает ведущим инженером на авиационном заводе, где готовят к испытаниям новые самолеты «Кречеты». Руководство завода, не зная о последствиях её травмы, поручает Анне вместе с майором Зотовым перегнать опытный образец «Кречета» на фронт. Кроме желания одержать победу над врагом и вернуться домой с победой, Анна преследует и личную цель. Она настроена поквитаться с майором Бриггелем — немецким лётчиком, из-за которого погиб её возлюбленный. Страна: Россия Студия: ХитФильм Продакшн, МТС Медиа Продолжительность: 1 x ~ 00:48:00 Язык: Русский Премьера в Росcии: 09 мая 2024 года Цифровой релиз: 09 мая 2024 года Примечание: Без рекламы Возраст: 12+ Файл Формат: MKV Качество: WEB-DL 1080p Видео: MPEG-4 AVC, ~ 6144 Кбит/с, 1920x1080 Звук: AC3, 2 ch, 256 Кбит/с Субтитры: Отсутствуют Семпл
[+] Скриншоты
[+] MIОбщее Уникальный идентификатор : 153003998021039431994672219559733697624 (0x731B7F8619D9A1AA514E87E895A71C58) Полное имя : C:UsersAdminDesktopRedkaya.ptica.S01.2024.WEB-DL.1080pRedkaya.ptica.S01.E01.2024.WEB-DL.1080p.mkv Формат : Matroska Версия формата : Version 4 Размер файла : 2,14 Гбайт Продолжительность : 48 м. 20 с. Режим общего битрейта : Постоянный Общий поток : 6 333 Кбит/сек Название фильма : Redkaya.ptica.S01.E01.2024.WEB-DL.1080p Дата кодирования : UTC 2024-05-09 06:00:13 Программа кодирования : mkvmerge v84.0 ('Sleeper') 64-bit Библиотека кодирования : libebml v1.4.5 + libmatroska v1.7.1 Attachments : poster.jpg Видео Идентификатор : 1 Формат : AVC Формат/Информация : Advanced Video Codec Профиль формата : Baseline@L4 Настройки формата : 2 Ref Frames Параметр CABAC формата : Нет Параметр RefFrames формата : 2 кадра Параметр GOP формата : M=1, N=25 Идентификатор кодека : V_MPEG4/ISO/AVC Продолжительность : 48 м. 20 с. Вид битрейта : Постоянный Битрейт : 6 144 Кбит/сек Ширина : 1 920 пикселей Высота : 1 080 пикселей Соотношение сторон : 16:9 Режим частоты кадров : Постоянный Частота кадров : 25,000 кадров/сек Цветовое пространство : YUV Субдискретизация насыщенности : 4:2:0 Битовая глубина : 8 бит Тип развёртки : Прогрессивная Бит/(Пиксели*Кадры) : 0.119 Размер потока : 2,05 Гбайт (96%) Default : Да Forced : Нет Аудио Идентификатор : 2 Формат : AC-3 Формат/Информация : Audio Coding 3 Коммерческое название : Dolby Digital Идентификатор кодека : A_AC3 Продолжительность : 48 м. 20 с. Вид битрейта : Постоянный Битрейт : 256 Кбит/сек Каналы : 2 канала Channel layout : L R Частота : 48,0 КГц Частота кадров : 31,250 кадров/сек (1536 SPF) Метод сжатия : С потерями Размер потока : 88,5 Мбайт (4%) Заголовок : Язык : Russian Service kind : Complete Main Default : Да Forced : Нет

Всего файлов в раздаче: 1 
Redkaya.ptica.S01.E01.2024.WEB-DL.1080p.mkv2.14 GB

Похожие раздачи по запросу - Редкая
2024-05-13 magnet Редкая птица [S01] (2024) WEB-DLRip-AVC от Generalfilm | КПК 878.62 MB ↑ 1 ↓ 0
2024-05-13 magnet Редкая птица [S01] (2024) WEB-DL 720p от Files-x 5.48 GB ↑ 0 ↓ 0
2024-05-12 magnet Редкая птица [S01] (2024) WEB-DLRip-AVC от Files-x 2.43 GB ↑ 0 ↓ 0
2024-05-12 magnet Редкая птица [S01] (2024) WEB-DLRip 2.51 GB ↑ 1 ↓ 0
2024-05-12 magnet Редкая птица [01-03 из 04] (2024) WEB-DL 720p от Files-x 4.10 GB ↑ 0 ↓ 0
2024-05-12 magnet Редкая птица [S01] (2024) WEB-DL 1080p 8.57 GB ↑ 0 ↓ 0
2024-05-11 magnet Редкая птица [01-03 из 04] (2024) WEB-DLRip 1.88 GB ↑ 0 ↓ 0

Кто качает (только для создателя раздачи и модераторов): Локальные пиры отсутствуют

Комментарии


Зарегистрируйтесь чтобы добавить комментарий
Торрент клиент
byTorrent - программа для загрузки торрент-файлов.

Скачать byTorrent.exe (1,5 МБ)

Скачать byTorrent.zip (0,6 МБ)

Поддержи torrent.by
российских рублей
(300 российских рублей это 4$)

Обратная связь rss

End game ©