↑↓torrent.by
Поиск
Логин:  Регистрация
Пароль:

Кровь / Blood (2022) BDRip-AVC от DoMiNo & селезень | D

download Скачать торрент-файл   magnet Магнитная ссылка Размер: 1.46 GB Добавлен: 2024-05-10 05:00
Пиры будут получены из сети DHT
Последний сидер был замечен вчера в 23:55
Информация о фильме Название: Кровь Оригинальное название: Blood Год выхода: 2022 Жанр: Ужасы, драма Режиссер: Брэд Андерсон В ролях: Мишель Монахэн, Финлэй Войтак-Хиссонг, Скайлар Морган Джонс, Скит Ульрих, Дженнифер Роуз Гарсиа, Джун Б. Уайлд, Даника Фредерик, Сара Констибл, Онали Эймс, Кендес Смит Описание: После развода Джесс с двумя детьми и собакой переезжает в старый родительский дом в сельской местности. Вскоре пёс убегает в лес, а вернувшись через несколько дней, нападает на сына Джесс и вцепляется ему в горло. Экстренная госпитализация, переливание крови, но мальчик подозрительно быстро идёт на поправку, только теперь у него развивается неконтролируемое стремление пить кровь. Страна: США Студия: H2L Media Group, Hercules Film Fund Продолжительность: 01:49:07 Перевод: Дублированный | Кириллица Субтитры: Русские (Forced, Full), Английские Файл Формат: Matroska Качество: BDRip-AVC Видео: 1024x428 at 23.976 fps, x264@L4.1, ~1534 kbps Аудио: AC3, 6 ch, ~384 kbps - | Русский | Формат субтитров: softsub (SRT) ***Рип от: -=DoMiNo=-
[+] M/Ix264 : frame I:1156 Avg QP:14.59 size: 44027 x264 : frame P:32792 Avg QP:16.78 size: 18718 x264 : frame B:123025 Avg QP:18.78 size: 4795 General Unique ID : 287524956776346860216784254578424370774 (0xD84F4ADAD1CD66B9C1BBFBA940555656) Complete name : I:Blood.2022.DUB.BDRip.x264.seleZen.mkv Format : Matroska Format version : Version 4 File size : 1.46 GiB Duration : 1 h 49 min Overall bit rate : 1 918 kb/s Frame rate : 23.976 FPS Movie name : Blood.2022.DUB.BDRip.x264.seleZen Encoded date : 2023-10-31 15:40:49 UTC Writing application : mkvmerge v80.0 ('Roundabout') 64-bit Writing library : libebml v1.4.4 + libmatroska v1.7.1 Cover : Yes Attachments : cover.jpg / small_cover.jpg Video ID : 1 Format : AVC Format/Info : Advanced Video Codec Format profile : High@L4.1 Format settings : CABAC / 12 Ref Frames Format settings, CABAC : Yes Format settings, Reference : 12 frames Codec ID : V_MPEG4/ISO/AVC Duration : 1 h 49 min Bit rate : 1 534 kb/s Width : 1 024 pixels Height : 428 pixels Display aspect ratio : 2.40:1 Frame rate mode : Constant Frame rate : 23.976 (24000/1001) FPS Color space : YUV Chroma subsampling : 4:2:0 Bit depth : 8 bits Scan type : Progressive Bits/(Pixel*Frame) : 0.146 Stream size : 1.17 GiB (80%) Title : -=DoMiNo=- Writing library : x264 core 164 r3156 d46938d Encoding settings : cabac=1 / ref=12 / deblock=1:-2:-2 / analyse=0x3:0x133 / me=umh / subme=10 / psy=1 / psy_rd=1.05:0.03 / mixed_ref=1 / me_range=32 / chroma_me=1 / trellis=2 / 8x8dct=1 / cqm=0 / deadzone=21,11 / fast_pskip=0 / chroma_qp_offset=-3 / threads=13 / lookahead_threads=3 / sliced_threads=0 / nr=0 / decimate=0 / interlaced=0 / bluray_compat=0 / constrained_intra=0 / bframes=12 / b_pyramid=2 / b_adapt=2 / b_bias=0 / direct=3 / weightb=1 / open_gop=0 / weightp=2 / keyint=240 / keyint_min=24 / scenecut=40 / intra_refresh=0 / rc_lookahead=60 / rc=2pass / mbtree=0 / bitrate=1534 / ratetol=1.0 / qcomp=0.70 / qpmin=0 / qpmax=69 / qpstep=4 / cplxblur=20.0 / qblur=0.5 / vbv_maxrate=50000 / vbv_bufsize=62500 / nal_hrd=none / filler=0 / ip_ratio=1.16 / pb_ratio=1.32 / aq=3:0.90 Language : English Default : Yes Forced : No Color range : Limited Matrix coefficients : BT.709 Audio ID : 2 Format : AC-3 Format/Info : Audio Coding 3 Commercial name : Dolby Digital Codec ID : A_AC3 Duration : 1 h 48 min Bit rate mode : Constant Bit rate : 384 kb/s Channel(s) : 6 channels Channel layout : L R C LFE Ls Rs Sampling rate : 48.0 kHz Frame rate : 31.250 FPS (1536 SPF) Compression mode : Lossy Stream size : 299 MiB (20%) Title : DUB Кириллица Language : Russian Service kind : Complete Main Default : Yes Forced : No Text #1 ID : 3 Format : UTF-8 Codec ID : S_TEXT/UTF8 Codec ID/Info : UTF-8 Plain Text Duration : 1 h 43 min Bit rate : 1 b/s Frame rate : 0.004 FPS Count of elements : 26 Stream size : 1.17 KiB (0%) Title : Forced Language : Russian Default : No Forced : No Text #2 ID : 4 Format : UTF-8 Codec ID : S_TEXT/UTF8 Codec ID/Info : UTF-8 Plain Text Duration : 1 h 43 min Bit rate : 81 b/s Frame rate : 0.223 FPS Count of elements : 1389 Stream size : 62.1 KiB (0%) Language : Russian Default : No Forced : No Text #3 ID : 5 Format : UTF-8 Codec ID : S_TEXT/UTF8 Codec ID/Info : UTF-8 Plain Text Duration : 1 h 43 min Bit rate : 47 b/s Frame rate : 0.206 FPS Count of elements : 1271 Stream size : 35.8 KiB (0%) Language : English Default : No Forced : No Text #4 ID : 6 Format : UTF-8 Codec ID : S_TEXT/UTF8 Codec ID/Info : UTF-8 Plain Text Duration : 1 h 46 min Bit rate : 57 b/s Frame rate : 0.248 FPS Count of elements : 1589 Stream size : 45.2 KiB (0%) Title : SDH Language : English Default : No Forced : No Menu 00:00:00.000 : en:Chapter 01 00:07:24.778 : en:Chapter 02 00:16:19.061 : en:Chapter 03 00:25:27.067 : en:Chapter 04 00:36:32.774 : en:Chapter 05 00:46:07.431 : en:Chapter 06 00:55:57.938 : en:Chapter 07 01:05:57.245 : en:Chapter 08 01:14:57.535 : en:Chapter 09 01:24:38.657 : en:Chapter 10 01:32:43.767 : en:Chapter 11 01:44:49.116 : en:Chapter 12
Релиз: Присоединяйся к: Кликай на баннеры.

Всего файлов в раздаче: 1 
Blood.2022.DUB.BDRip.x264.seleZen.mkv1.46 GB

Похожие раздачи по запросу - Кровь
2024-05-14 magnet Кровь Зевса / Blood of Zeus [S02] (2024) WEB-DL 1080p от Jaskier | P 10.05 GB ↑ 0 ↓ 0
2024-05-13 magnet Кровь Зевса / Blood of Zeus [02x01-02 из 08] (2024) WEB-DL 1080p от Jaskier | P 2.59 GB ↑ 0 ↓ 0
2024-05-09 magnet Кровь в обмен на пыль / Blood for Dust (2023) BDRip-AVC | D 1.46 GB ↑ 0 ↓ 0
2024-05-06 magnet Монти Механик - Дурная кровь (2024) FLAC 146.97 MB ↑ 0 ↓ 0
2024-05-06 magnet Кровь в обмен на пыль / Blood for Dust (2023) BDRip 1080p от New-Team | D 8.36 GB ↑ 0 ↓ 1
2024-05-06 magnet Кровь в обмен на пыль / Blood for Dust (2023) HDRip от MegaPeer | D 1.45 GB ↑ 0 ↓ 0
2024-05-06 magnet Кровь в обмен на пыль / Blood for Dust (2023) BDRip 720p от New-Team | D 4.01 GB ↑ 0 ↓ 0

Кто качает (только для создателя раздачи и модераторов): Локальные пиры отсутствуют

Комментарии

markoff.by
Атмосфера в фильме есть и актёры играют нормально, но мамаша - идиотка конечно сильно раздражает весь фильм. Напоминает "Впусти меня", только меньше психологизма и больше соплей. А так, смотреть можно. В титрах, кстати, есть сцена, которая испортила концовку. 6 из 10


Зарегистрируйтесь чтобы добавить комментарий
Торрент клиент
byTorrent - программа для загрузки торрент-файлов.

Скачать byTorrent.exe (1,5 МБ)

Скачать byTorrent.zip (0,6 МБ)

Поддержи torrent.by
российских рублей
(300 российских рублей это 4$)

Обратная связь rss

End game ©