↑↓torrent.by
Поиск
Логин:  Регистрация
Пароль:

Хоббит: Трилогия / The Hobbit: Trilogy (2012-2014) BDRip 1080p от Generalfilm | D | P | Extended Edition

download Скачать торрент-файл   magnet Магнитная ссылка Размер: 39.26 GB Добавлен: 2024-05-10 05:00
Пиры будут получены из сети DHT
Последний сидер был замечен 2024-05-12 22:28
Хоббит: Трилогия / The Hobbit: Trilogy
[+] Хоббит: Нежданное путешествие / The Hobbit: An Unexpected Journey - 2012Хоббит: Нежданное путешествие / The Hobbit: An Unexpected Journey Информация о фильме Год выпуска: 2012 Страна: Новая Зеландия, США Студия: Metro-Goldwyn-Mayer (MGM), New Line Cinema Жанр: фэнтези, приключения, боевик Перевод:#1 Дублированный | Лицензия Перевод:#2 Профессиональный (многоголосый закадровый) |студия «Омикрон» (озвучены разговоры Орков & Эльфов) by djamb Продолжительность: 03:02:31 Субтитры: Русские | forced Режиссер: Питер Джексон В ролях: Мартин Фриман / Martin Freeman (Bilbo), Иэн МакКеллен / Ian McKellen (Gandalf) , Ричард Армитедж / Richard Armitage (Thorin) , Джеймс Несбитт / James Nesbitt (Bofur) , Кен Стотт / Ken Stott (Balin), Грэм МакТавиш / Graham McTavish (Dwalin), Дин О’Горман / Dean O'Gorman (Fili) , Эйдан Тернер / Aidan Turner (Kili) , Стивен Хантер / Stephen Hunter (Bombur) , Сильвестр МакКой / Sylvester McCoy (Radagast) , Джед Брофи / Jed Brophy (Nori) , Марк Хэдлоу / Mark Hadlow (Dori) , Джон Коллен / John Callen (Oin) , Питер Хэмблтон / Peter Hambleton (Gloin) , Уильям Кирчер / William Kircher (Bifur) , Энди Серкис / Andy Serkis (Gollum), Хьюго Уивинг / Hugo Weaving (Elrond) , Элайджа Вуд / Elijah Wood (Frodo) , Иэн Холм / Ian Holm (Old Bilbo) , Кристофер Ли / Christopher Lee (Saruman) , Адам Браун / Adam Brown (Ori). О фильме: Хоббит Бильбо Бэггинс пускается в грандиозный поход, целью которого является отвоевание утраченного королевства гномов Эребор у дракона Смауга. Совершенно неожиданно с хоббитом налаживает контакт волшебник Гэндальф Серый. Так Бильбо находит себя и присоединяется к компании тринадцати гномов, возглавляемых легендарным воином Торином Дубощитом. Их путешествие пройдёт через Дикий Край, предательские земли, населенные гоблинами и орками, смертоносными варгами, гигантскими пауками, меняющим шкуры народом и волшебниками. И хотя их цель находится на Востоке, среди пустошей Одинокой Горы, сначала им придется выбраться из туннелей гоблинов, где Бильбо встретит существо, которое изменит его жизнь навсегда - Голлума. Качество: BDRip 1080p Формат: MKV Видео: MPEG-4 AVC, 1920x800 (2.40:1), 23,976 fps, 8030 Kbit/s (0.218 bit/pixel) Аудио:#1 русский, AC3, 5.1, 48 kHz, 640 kbps | Лицензия Аудио:#2 русский, AC3, 5.1, 48 kHz, 640 kbps | «Омикрон» (озвучены разговоры Орков & Эльфов) by djamb Навигация по главам: есть Релиз от:
[+] ОтчетМедиаИнфо General Unique ID : 188838778310212869201739008981635461413 (0x8E11069993F74709A6DCAB68C2D87125) Complete name : E:GFThe Hobbit TrilogyThe.Hobbit.An.Unexpected.Journey.2012.Extended.Edition.BDRip.1080p.Rip.by.HardwareMining.R.G.Generalfilm.mkv Format : Matroska Format version : Version 4 File size : 11.9 GiB Duration : 3 h 2 min Overall bit rate : 9 311 kb/s Frame rate : 23.976 FPS Movie name : The Hobbit_An Unexpected Journey_2012г_Extended Edition_Sir Peter Robert Jackson Encoded date : 2024-05-09 04:28:01 UTC Writing application : mkvmerge v6.8.0 ('Theme for Great Cities') 32bit built on Mar 2 2014 21:27:07 Writing library : libebml v1.3.0 + libmatroska v1.4.1 Cover : Yes Attachments : cover.png Video ID : 1 Format : AVC Format/Info : Advanced Video Codec Format profile : High@L4.1 Format settings : CABAC / 4 Ref Frames Format settings, CABAC : Yes Format settings, Reference frames : 4 frames Codec ID : V_MPEG4/ISO/AVC Duration : 3 h 2 min Bit rate : 8 030 kb/s Width : 1 920 pixels Height : 800 pixels Display aspect ratio : 2.40:1 Frame rate mode : Constant Frame rate : 23.976 FPS Color space : YUV Chroma subsampling : 4:2:0 Bit depth : 8 bits Scan type : Progressive Bits/(Pixel*Frame) : 0.218 Stream size : 10.0 GiB (84%) Writing library : x264 core 130 r2273 b3065e6 Encoding settings : cabac=1 / ref=4 / deblock=1:-2:-1 / analyse=0x3:0x133 / me=umh / subme=10 / psy=1 / psy_rd=1.00:0.08 / mixed_ref=1 / me_range=32 / chroma_me=1 / trellis=2 / 8x8dct=1 / cqm=0 / deadzone=21,11 / fast_pskip=0 / chroma_qp_offset=-3 / threads=48 / lookahead_threads=6 / sliced_threads=0 / nr=0 / decimate=1 / interlaced=0 / bluray_compat=0 / constrained_intra=0 / bframes=11 / b_pyramid=2 / b_adapt=2 / b_bias=0 / direct=3 / weightb=1 / open_gop=0 / weightp=2 / keyint=250 / keyint_min=25 / scenecut=40 / intra_refresh=0 / rc=2pass / mbtree=0 / bitrate=8030 / ratetol=1.0 / qcomp=0.60 / qpmin=0 / qpmax=69 / qpstep=4 / cplxblur=20.0 / qblur=0.5 / ip_ratio=1.40 / pb_ratio=1.30 / aq=2:1.00 Language : English Default : Yes Forced : No Color range : Limited Color primaries : BT.709 Transfer characteristics : BT.709 Matrix coefficients : BT.709 Audio #1 ID : 2 Format : AC-3 Format/Info : Audio Coding 3 Commercial name : Dolby Digital Codec ID : A_AC3 Duration : 3 h 2 min Bit rate mode : Constant Bit rate : 640 kb/s Channel(s) : 6 channels Channel layout : L R C LFE Ls Rs Sampling rate : 48.0 kHz Frame rate : 31.250 FPS (1536 SPF) Compression mode : Lossy Stream size : 836 MiB (7%) Title : Dub | Лицензия Language : Russian Service kind : Complete Main Default : Yes Forced : Yes Dialog Normalization : -31 dB cmixlev : -4.5 dB surmixlev : -6 dB dialnorm_Average : -31 dB dialnorm_Minimum : -31 dB dialnorm_Maximum : -31 dB Audio #2 ID : 3 Format : AC-3 Format/Info : Audio Coding 3 Commercial name : Dolby Digital Codec ID : A_AC3 Duration : 3 h 2 min Bit rate mode : Constant Bit rate : 640 kb/s Channel(s) : 6 channels Channel layout : L R C LFE Ls Rs Sampling rate : 48.0 kHz Frame rate : 31.250 FPS (1536 SPF) Compression mode : Lossy Stream size : 836 MiB (7%) Title : MVO | Омикрон | озвучены разговоры Орков & Эльфов by djamb Service kind : Complete Main Default : No Forced : No Dialog Normalization : -31 dB cmixlev : -4.5 dB surmixlev : -6 dB dialnorm_Average : -31 dB dialnorm_Minimum : -31 dB dialnorm_Maximum : -31 dB Text ID : 4 Format : UTF-8 Codec ID : S_TEXT/UTF8 Codec ID/Info : UTF-8 Plain Text Title : forced Language : Russian Default : Yes Forced : No Menu 00:00:00.000 : en:Opening Credits 00:00:53.011 : en:Prologue: The Fall of Erebor 00:10:12.028 : en:"In a Hole in the Ground There Lived a Hobbit" 00:14:08.806 : en:Very Old Friends 00:17:27.359 : en:Mr. Baggins 00:18:44.748 : en:An Unexpected Party 00:23:16.728 : en:"Blunt the Knives" 00:27:59.594 : en:A Map, a Key and a Contract 00:36:04.996 : en:"Misty Mountains" 00:41:17.391 : en:". . . The World is Ahead" 00:46:30.954 : en:The Battle of Azanulbizar 00:53:04.180 : en:Radagast the Brown 00:58:07.650 : en:Trollshaws 00:59:55.425 : en:Roast Mutton 01:10:42.509 : en:A Troll-Hoard 01:15:01.955 : en:The Hill of Sorcery 01:18:52.936 : en:Warg-Scouts 01:24:57.050 : en:Rivendell 01:30:34.554 : en:A Short Rest 01:34:10.728 : en:Moon Runes 01:37:24.588 : en:Azog the Defiler 01:39:03.604 : en:The Last Homely House 01:41:40.928 : en:The White Council 01:50:22.657 : en:"Why the Halfling?" 01:52:59.898 : en:Over Hill 01:59:06.347 : en:Under Hill 02:03:57.638 : en:The Great Goblin 02:09:51.700 : en:Riddles in the Dark 02:23:21.551 : en:The Biter and the Beater 02:25:19.001 : en:The Ring 02:26:31.324 : en:Escape from Goblin Town 02:30:53.043 : en:The Pity of Bilbo 02:33:00.546 : en:"Home Is Behind . . ." 02:35:52.718 : en:Out of the Frying Pan . . . 02:46:51.334 : en:A Good Omen 02:52:21.372 : en:Closing Credits
[+] Скриншоты
[+] Хоббит: Пустошь Смауга / The Hobbit: The Desolation of Smaug - 2013Хоббит: Пустошь Смауга / The Hobbit: The Desolation of Smaug Информация о фильме Год выпуска: 2013 Страна: Новая Зеландия, США Студия: Metro-Goldwyn-Mayer (MGM), New Line Cinema Жанр: фэнтези, приключения, боевик Перевод:#1 Дублированный | Лицензия Перевод:#2 Профессиональный (многоголосый закадровый) | студия «Омикрон» (озвучены разговоры Орков & Эльфов) by djamb Продолжительность: 03:06:35 Субтитры: Русские | forced Режиссер: Питер Джексон В ролях: Микаэл Персбрандт / Mikael Ake Persbrandt (Beorn) , Мартин Фриман / Martin Freeman (Bilbo) , Иэн МакКеллен / Ian McKellen (Gandalf) , Ричард Армитедж / Richard Armitage (Thorin) , Джеймс Несбитт / James Nesbitt (Bofur) , Кен Стотт / Ken Stott (Balin), Грэм МакТавиш / Graham McTavish (Dwalin), Дин О’Горман / Dean O'Gorman (Fili) , Эйдан Тернер / Aidan Turner (Kili) , Стивен Хантер / Stephen Hunter (Bombur) , Сильвестр МакКой / Sylvester McCoy (Radagast) , Джед Брофи / Jed Brophy (Nori) , Марк Хэдлоу / Mark Hadlow (Dori) , Джон Коллен / John Callen (Oin) , Питер Хэмблтон / Peter Hambleton (Gloin) , Уильям Кирчер / William Kircher (Bifur) , Энди Серкис / Andy Serkis (Gollum), Хьюго Уивинг / Hugo Weaving (Elrond) , Элайджа Вуд / Elijah Wood (Frodo) , Иэн Холм / Ian Holm (Old Bilbo) , Кристофер Ли / Christopher Lee (Saruman) , Адам Браун / Adam Brown (Ori) О фильме: Продолжение путешествия хоббита Бильбо Бэггинса, волшебника Гэндальфа и 13 отважных гномов. Их компания должна добраться до Одинокой горы. А там они встретятся с величайшей опасностью из всех — созданием куда более ужасающим, чем все их прошлые противники, чудовищем, которое проверит на прочность не только их мужество, но крепость их дружбы и правильность выбранного пути, — драконом Смаугом. Качество: BDRip 1080p Формат: MKV Видео: MPEG-4 AVC, 1920x800 (2.40:1), 23,976 fps, 8030 Kbit/s (0.218 bit/pixel) Аудио:#1 русский, AC3, 5.1, 48 kHz, 640 kbps | Лицензия Аудио:#2 русский, AC3, 5.1, 48 kHz, 640 kbps | «Омикрон» (озвучены разговоры Орков & Эльфов) by djamb Навигация по главам: есть Релиз от:
[+] ОтчетМедиаИнфо General Unique ID : 187259639194099339429531839876527215664 (0x8CE0E507C6BA0A8EA1B95732E93ED430) Complete name : E:GFThe Hobbit TrilogyThe.Hobbit.The.Desolation.of.Smaug.2013.Extended.Edition.BDRip.1080p.Rip.by.HardwareMining.R.G.Generalfilm.mkv Format : Matroska Format version : Version 4 File size : 12.1 GiB Duration : 3 h 6 min Overall bit rate : 9 310 kb/s Frame rate : 23.976 FPS Movie name : The Hobbit_An Unexpected Journey_2012г_Extended Edition_Sir Peter Robert Jackson Encoded date : 2024-05-09 04:46:32 UTC Writing application : mkvmerge v6.8.0 ('Theme for Great Cities') 32bit built on Mar 2 2014 21:27:07 Writing library : libebml v1.3.0 + libmatroska v1.4.1 Cover : Yes Attachments : cover.png / Aniron_0.ttf / Aniron_0.ttf / Aniron_0.ttf / Aniron_0.ttf Video ID : 1 Format : AVC Format/Info : Advanced Video Codec Format profile : High@L4.1 Format settings : CABAC / 4 Ref Frames Format settings, CABAC : Yes Format settings, Reference frames : 4 frames Codec ID : V_MPEG4/ISO/AVC Duration : 3 h 6 min Bit rate : 8 030 kb/s Width : 1 920 pixels Height : 800 pixels Display aspect ratio : 2.40:1 Frame rate mode : Constant Frame rate : 23.976 FPS Color space : YUV Chroma subsampling : 4:2:0 Bit depth : 8 bits Scan type : Progressive Bits/(Pixel*Frame) : 0.218 Stream size : 10.2 GiB (84%) Writing library : x264 core 130 r2273 b3065e6 Encoding settings : cabac=1 / ref=4 / deblock=1:-2:-1 / analyse=0x3:0x133 / me=umh / subme=10 / psy=1 / psy_rd=1.00:0.08 / mixed_ref=1 / me_range=32 / chroma_me=1 / trellis=2 / 8x8dct=1 / cqm=0 / deadzone=21,11 / fast_pskip=0 / chroma_qp_offset=-3 / threads=48 / lookahead_threads=6 / sliced_threads=0 / nr=0 / decimate=1 / interlaced=0 / bluray_compat=0 / constrained_intra=0 / bframes=11 / b_pyramid=2 / b_adapt=2 / b_bias=0 / direct=3 / weightb=1 / open_gop=0 / weightp=2 / keyint=250 / keyint_min=25 / scenecut=40 / intra_refresh=0 / rc=2pass / mbtree=0 / bitrate=8030 / ratetol=1.0 / qcomp=0.60 / qpmin=0 / qpmax=69 / qpstep=4 / cplxblur=20.0 / qblur=0.5 / ip_ratio=1.40 / pb_ratio=1.30 / aq=2:1.00 Language : English Default : Yes Forced : No Color range : Limited Color primaries : BT.709 Transfer characteristics : BT.709 Matrix coefficients : BT.709 Audio #1 ID : 2 Format : AC-3 Format/Info : Audio Coding 3 Commercial name : Dolby Digital Codec ID : A_AC3 Duration : 3 h 6 min Bit rate mode : Constant Bit rate : 640 kb/s Channel(s) : 6 channels Channel layout : L R C LFE Ls Rs Sampling rate : 48.0 kHz Frame rate : 31.250 FPS (1536 SPF) Compression mode : Lossy Stream size : 854 MiB (7%) Title : Dub | Лицензия Language : Russian Service kind : Complete Main Default : Yes Forced : No Dialog Normalization : -31 dB cmixlev : -4.5 dB surmixlev : -6 dB dialnorm_Average : -31 dB dialnorm_Minimum : -31 dB dialnorm_Maximum : -31 dB Audio #2 ID : 3 Format : AC-3 Format/Info : Audio Coding 3 Commercial name : Dolby Digital Codec ID : A_AC3 Duration : 3 h 6 min Bit rate mode : Constant Bit rate : 640 kb/s Channel(s) : 6 channels Channel layout : L R C LFE Ls Rs Sampling rate : 48.0 kHz Frame rate : 31.250 FPS (1536 SPF) Compression mode : Lossy Stream size : 854 MiB (7%) Title : MVO | Омикрон | озвучены разговоры Орков & Эльфов by djamb Language : Russian Service kind : Complete Main Default : No Forced : No Dialog Normalization : -31 dB cmixlev : -4.5 dB surmixlev : -6 dB dialnorm_Average : -31 dB dialnorm_Minimum : -31 dB dialnorm_Maximum : -31 dB Text ID : 4 Format : UTF-8 Codec ID : S_TEXT/UTF8 Codec ID/Info : UTF-8 Plain Text Title : forced Language : Russian Default : Yes Forced : No Menu 00:00:00.000 : en:The Quest for Erebor 00:07:33.411 : en:Wilderland 00:12:00.302 : en:The Master Summons 00:12:59.445 : en:A Commander of Legions 00:15:55.371 : en:Queer Lodgings 00:20:56.922 : en:Last of the Skin-changers 00:23:15.435 : en:Where the Shadows Lie 00:25:52.676 : en:The Elven-gate 00:29:59.255 : en:Mirkwood 00:38:14.041 : en:Flies and Spiders 00:46:43.842 : en:The Woodland Realm 00:49:46.316 : en:The Elvenking 00:53:19.529 : en:King and Captain 00:55:10.223 : en:Feast of Starlight 00:58:07.859 : en:Barrels Out of Bond 01:08:42.326 : en:The High Fells 01:12:22.338 : en:Bard the Bowman 01:15:45.707 : en:The Nature of Evil 01:19:10.162 : en:Smuggled Cargo 01:22:46.836 : en:Lake-town 01:25:09.687 : en:The Master of Lake-town 01:28:07.740 : en:The World of Men 01:31:15.553 : en:The Home of Bard 01:36:02.756 : en:"It Is Our Fight" 01:37:35.891 : en:The Prophecy 01:40:35.404 : en:A Warm Welcome 01:45:16.518 : en:The Parting of the Company 01:48:44.476 : en:The Lonely Mountain 01:50:31.750 : en:A Spell of Concealment 01:52:36.541 : en:The Hidden Door 01:53:08.448 : en:Son of Thror 01:59:16.357 : en:On the Doorstep 02:07:11.832 : en:Kingsfoil 02:07:39.109 : en:The Courage of Hobbits 02:09:22.671 : en:The Enemy Revealed 02:12:48.585 : en:Inside Information 02:22:00.845 : en:The Black Arrow 02:22:43.429 : en:In the Dragon's Lair 02:23:17.922 : en:Under Arrest 02:24:56.396 : en:Bilbo the Burglar 02:26:45.087 : en:Smaug the Magnificent 02:29:18.824 : en:Orc Attack 02:33:12.975 : en:Confrontations 02:34:57.621 : en:Elvish Medicine 02:36:13.155 : en:Hunter and Hunted 02:37:45.956 : en:"She Walks In Starlight" 02:39:08.830 : en:A Desperate Plan 02:41:39.940 : en:Duel in Lake-town 02:44:06.002 : en:The Forges Relit 02:51:16.683 : en:Smaug the Golden 02:56:05.555 : en:Credits
[+] Скриншоты
[+] Хоббит: Битва пяти воинств / The Hobbit: The Battle of the Five Armies - 2014Хоббит: Битва пяти воинств / The Hobbit: The Battle of the Five Armies Информация о фильме Год выпуска: 2014 Страна: Новая Зеландия, США Студия: Metro-Goldwyn-Mayer (MGM), New Line Cinema Жанр: фэнтези, приключения, боевик Перевод:#1 Дублированный | Лицензия Перевод:#2 Профессиональный (многоголосый закадровый) |студия «Омикрон» (озвучены разговоры Орков & Эльфов) by djamb Продолжительность: 02:44:03 Субтитры: Русские | forced Режиссер: Питер Джексон В ролях: Эйдан Тернер, Эванджелин Лилли, Хьюго Уивинг(Elrond_Lord of Rivendell), Кристофер Ли, Ричард Армитедж, Люк Эванс, Иэн МакКеллен, Мартин Фриман, Ли Пейс, Орландо Блум, Бенедикт Камбербэтч, Кен Стотт. О фильме: Когда отряд из тринадцати гномов нанимал хоббита Бильбо Бэгинса в качестве взломщика и четырнадцатого, «счастливого», участника похода к Одинокой горе, Бильбо полагал, что его приключения закончатся, когда он выполнит свою задачу - найдет сокровище, которое так необходимо предводителю гномов Торину. Путешествие в Эребор, захваченное драконом Смаугом королевство гномов, оказалось еще более опасным, чем предполагали гномы и даже Гэндальф - мудрый волшебник, протянувший Торину и его отряду руку помощи. В погоню за гномами устремилась армия орков, ведомых пробудившимся в руинах древним злом, а эльфы и люди, с которыми Бильбо и его товарищам пришлось иметь дело во время путешествия и которые пострадали от последствий желания гномов вернуть свой дом, предъявили права на щедрое вознаграждение - часть сокровищ Одинокой горы. Скоро неподалеку от Одинокой горы встретятся пять армий, и лишь кровопролитная битва определит результаты смелого гномьего похода. Качество: BDRip 1080p Формат: MKV Видео: MPEG-4 AVC, 1920x800 (2.40:1), 23,976 fps, 12.0 Mb/s (0.327 bit/pixel) Аудио:#1 русский, AC3, 5.1, 48 kHz, 640 kbps | Лицензия Аудио:#2 русский, AC3, 5.1, 48 kHz, 640 kbps | «Омикрон» (озвучены разговоры Орков & Эльфов) by djamb Навигация по главам: есть Релиз от:
[+] ОтчетМедиаИнфо General Unique ID : 207611547832759828032567844043479452072 (0x9C308798EC487AD28F82E266346A09A8) Complete name : E:GFThe Hobbit TrilogyThe.Hobbit.The.Battle.of.the.Five.Armies.2014.Extended.Edition.BDRip.1080p.Rip.by.HardwareMining.R.G.Generalfilm.mkv Format : Matroska Format version : Version 4 File size : 15.3 GiB Duration : 2 h 44 min Overall bit rate : 13.3 Mb/s Frame rate : 23.976 FPS Movie name : The Hobbit_An Unexpected Journey_2012г_Extended Edition_Sir Peter Robert Jackson Encoded date : 2024-05-09 04:59:42 UTC Writing application : mkvmerge v6.8.0 ('Theme for Great Cities') 32bit built on Mar 2 2014 21:27:07 Writing library : libebml v1.3.0 + libmatroska v1.4.1 Cover : Yes Attachments : cover0.png / Aniron_0.ttf / Aniron_0.ttf / Aniron_0.ttf / Aniron_0.ttf Video ID : 1 Format : AVC Format/Info : Advanced Video Codec Format profile : High@L4.1 Format settings : CABAC / 4 Ref Frames Format settings, CABAC : Yes Format settings, Reference frames : 4 frames Codec ID : V_MPEG4/ISO/AVC Duration : 2 h 44 min Bit rate : 12.0 Mb/s Width : 1 920 pixels Height : 800 pixels Display aspect ratio : 2.40:1 Frame rate mode : Constant Frame rate : 23.976 FPS Color space : YUV Chroma subsampling : 4:2:0 Bit depth : 8 bits Scan type : Progressive Bits/(Pixel*Frame) : 0.327 Stream size : 13.5 GiB (88%) Writing library : x264 core 130 r2273 b3065e6 Encoding settings : cabac=1 / ref=4 / deblock=1:-2:-1 / analyse=0x3:0x133 / me=umh / subme=10 / psy=1 / psy_rd=1.00:0.08 / mixed_ref=1 / me_range=32 / chroma_me=1 / trellis=2 / 8x8dct=1 / cqm=0 / deadzone=21,11 / fast_pskip=0 / chroma_qp_offset=-3 / threads=48 / lookahead_threads=6 / sliced_threads=0 / nr=0 / decimate=1 / interlaced=0 / bluray_compat=0 / constrained_intra=0 / bframes=11 / b_pyramid=2 / b_adapt=2 / b_bias=0 / direct=3 / weightb=1 / open_gop=0 / weightp=2 / keyint=250 / keyint_min=25 / scenecut=40 / intra_refresh=0 / rc=2pass / mbtree=0 / bitrate=12030 / ratetol=1.0 / qcomp=0.60 / qpmin=0 / qpmax=69 / qpstep=4 / cplxblur=20.0 / qblur=0.5 / ip_ratio=1.40 / pb_ratio=1.30 / aq=2:1.00 Language : English Default : Yes Forced : No Color range : Limited Color primaries : BT.709 Transfer characteristics : BT.709 Matrix coefficients : BT.709 Audio #1 ID : 2 Format : AC-3 Format/Info : Audio Coding 3 Commercial name : Dolby Digital Codec ID : A_AC3 Duration : 2 h 44 min Bit rate mode : Constant Bit rate : 640 kb/s Channel(s) : 6 channels Channel layout : L R C LFE Ls Rs Sampling rate : 48.0 kHz Frame rate : 31.250 FPS (1536 SPF) Compression mode : Lossy Stream size : 751 MiB (5%) Title : Dub | Лицензия Language : Russian Service kind : Complete Main Default : Yes Forced : Yes Dialog Normalization : -31 dB cmixlev : -4.5 dB surmixlev : -6 dB dialnorm_Average : -31 dB dialnorm_Minimum : -31 dB dialnorm_Maximum : -31 dB Audio #2 ID : 3 Format : AC-3 Format/Info : Audio Coding 3 Commercial name : Dolby Digital Codec ID : A_AC3 Duration : 2 h 44 min Bit rate mode : Constant Bit rate : 640 kb/s Channel(s) : 6 channels Channel layout : L R C LFE Ls Rs Sampling rate : 48.0 kHz Frame rate : 31.250 FPS (1536 SPF) Compression mode : Lossy Stream size : 751 MiB (5%) Title : MVO | Омикрон | озвучены разговоры Орков & Эльфов by djamb Language : Russian Service kind : Complete Main Default : No Forced : No Dialog Normalization : -31 dB cmixlev : -4.5 dB surmixlev : -6 dB dialnorm_Average : -31 dB dialnorm_Minimum : -31 dB dialnorm_Maximum : -31 dB Text ID : 4 Format : UTF-8 Codec ID : S_TEXT/UTF8 Codec ID/Info : UTF-8 Plain Text Title : forced Language : Russian Default : Yes Forced : No Menu 00:00:00.000 : en:Fire And Water 00:05:12.395 : en:Bard The Dragon-Slayer 00:12:47.057 : en:Dungeons Of The Dark Lord 00:13:19.298 : en:Shores Of The Long Lake 00:18:57.427 : en:Not At Home 00:23:42.170 : en:"Others Will Now Look To The Mountain" 00:24:56.161 : en:Legions Of The Defiler 00:26:04.563 : en:The Mark Of Gundabad 00:27:33.026 : en:Attack On Dol Guldur 00:35:45.685 : en:"Summon Our Friends" 00:36:41.282 : en:The King's Jewel 00:40:41.897 : en:The Ruins Of Dale 00:42:01.143 : en:Erebor Fortified 00:43:11.755 : en:The Elvenking's Aid 00:46:16.148 : en:The Gathering Of The Clouds 00:51:27.667 : en:A Token Of Friendship 00:54:57.961 : en:The Shadow Of Gundabad 00:56:14.829 : en:"The Last Move In A Master Plan" 00:58:31.299 : en:Bolg Of The North 01:00:26.956 : en:The Night Watch 01:02:43.593 : en:A Thief In The Night 01:06:10.174 : en:An Honest Burglar 01:12:23.297 : en:Dain Ironfoot 01:17:22.554 : en:The Clouds Burst 01:20:36.331 : en:The Battle At Dale 01:24:57.217 : en:The Darkest Hour 01:28:41.774 : en:Dragon-Sickness 01:30:52.280 : en:The Return Of Thorin Oakenshield 01:33:02.159 : en:Sons Of Durin 01:35:12.832 : en:"To The King!" 01:38:32.489 : en:A Call To Arms 01:39:42.893 : en:Thorin's Plan 01:41:00.596 : en:The War Chariot 01:45:03.505 : en:Courage And Cowardice 01:47:13.635 : en:The Fifth Army 01:49:05.288 : en:Scouting Ravenhill 01:50:03.013 : en:Blood Of The Eldar 01:52:59.606 : en:An Unforseen Remedy 01:53:51.282 : en:The Fallen 01:57:15.236 : en:The Battle Of Ravenhill 02:05:38.572 : en:To The Death 02:12:07.044 : en:Parting In Friendship 02:15:26.243 : en:The Sorrow Of Elves 02:18:32.512 : en:Eyes That Fire And Sword Have Seen 02:20:07.440 : en:King Under The Mountain 02:22:27.205 : en:The Return Journey 02:26:11.596 : en:The Last Stage 02:30:54.462 : en:Credits
[+] Скриншоты

Всего файлов в раздаче: 3 
The.Hobbit.An.Unexpected.Journey.2012.Extended.Edition.BDRip.1080p.Rip.by.HardwareMining.R.G.Generalfilm.mkv11.87 GB
The.Hobbit.The.Battle.of.the.Five.Armies.2014.Extended.Edition.BDRip.1080p.Rip.by.HardwareMining.R.G.Generalfilm.mkv15.25 GB
The.Hobbit.The.Desolation.of.Smaug.2013.Extended.Edition.BDRip.1080p.Rip.by.HardwareMining.R.G.Generalfilm.mkv12.13 GB

Похожие раздачи по запросу - Хоббит
2022-01-04 magnet Хоббит: Трилогия / The Hobbit: Trilogy (2012-2014) BDRip-HEVC 1080p | HDR | Расширенная версия | D 32.07 GB ↑ 0 ↓ 0

Кто качает (только для создателя раздачи и модераторов): Локальные пиры отсутствуют

Комментарии


Зарегистрируйтесь чтобы добавить комментарий
Торрент клиент
byTorrent - программа для загрузки торрент-файлов.

Скачать byTorrent.exe (1,5 МБ)

Скачать byTorrent.zip (0,6 МБ)

Поддержи torrent.by
российских рублей
(300 российских рублей это 4$)

Обратная связь rss

End game ©