↑↓torrent.by
Поиск
Логин:  Регистрация
Пароль:

Молчи в тряпочку / Keeping Mum (2005) BDRip 1080p от DoMiNo & селезень | D

download Скачать торрент-файл   magnet Магнитная ссылка Размер: 6.14 GB Добавлен: 2024-05-10 05:00
Пиры будут получены из сети DHT
Последний сидер был замечен 2024-05-30 19:39
Информация о фильме Название: Молчи в тряпочку Оригинальное название: Keeping Mum Год выхода: 2005 Жанр: Комедия, криминал Режиссёр: Найэлл Джонсон В ролях: Мэгги Смит, Кристин Скотт Томас, Роуэн Аткинсон, Патрик Суэйзи, Тэмсин Эгертон, Тоби Паркес, Лиз Смит, Эмилия Фокс, Джеймс Бут, Патрик Монктон, Роули Ирлам, Вивьен Мур, Мюррей МакАртур, Руперт Саймониан, Алекс МакКуин, Пол Вира, Тони Денхан, Роджер Хэммонд, Энди Джонс, Джек Райан, Терри Элдертон, Дэвид Шааль, Крисси Коттерилл Описание: Уолтер Гудфеллоу, приходской священник в маленькой английской деревушке Литтл Уэллоп, давно запустил свой брак с Глорией, и вообще так отдалился от своей семьи, что даже внимания не обращает ни на семнадцатилетнюю дочь, которая вовсю встречается с разными неподходящими ей парнями, ни на сына Пити, который боится ходить в школу, потому что его там обижают. А лишённая любви мужа Глория начинает влюбляться в американца Лэнса, профессионального гольфиста, дающего ей частные уроки. Однако семейные проблемы потихоньку исчезают, когда в доме появляется новая домохозяйка Грэйс Хокинс, которая справляется с трудностями словно куда более старая, мрачная и таинственная Мэри Поппинс… Производство: Великобритания, США / Summit Entertainment, Azure Films, Tusk Productions Перевод: Профессиональный (дублированный) | Мосфильм Продолжительность: 01:43:07 Субтитры: Русские (Full), английские Файл Качество: BDRip 1080p Формат: MKV Видео: 1920x820, 23.976 fps, MPEG-4 AVC, ~7625 Kbps Аудио 1: AC3, 2 ch, ~448 kbps - | Русский | Аудио 2: AC3, 6 ch, ~448 kbps - | Английский | Формат субтитров: softsub (SRT) ***Рип от: -=DoMiNo=-
[+] M/Ix264 : frame I:1197 Avg QP:17.73 size:176119 x264 : frame P:29335 Avg QP:19.03 size: 76636 x264 : frame B:117812 Avg QP:20.62 size: 29185 x264 : consecutive B-frames: 1.6% 1.3% 7.7% 8.2% 8.3% 68.9% 2.6% 0.3% 0.5% 0. 3% General Unique ID : 113703836668883555070193640419782859914 (0x558A8FF858F482446DEC4217B0889C8A) Complete name : S:Keeping Mum.2005.DUB.BDRip.1080p.x264.seleZen.mkv Format : Matroska Format version : Version 4 File size : 6.14 GiB Duration : 1 h 43 min Overall bit rate : 8 524 kb/s Frame rate : 23.976 FPS Movie name : Keeping Mum.2005.DUB.BDRip.1080p.x264.seleZen Encoded date : 2023-09-01 15:38:47 UTC Writing application : mkvmerge v79.0 ('Funeral Pyres') 64-bit Writing library : libebml v1.4.4 + libmatroska v1.7.1 Cover : Yes Attachments : cover.jpg / small_cover.jpg Video ID : 1 Format : AVC Format/Info : Advanced Video Codec Format profile : High@L4.1 Format settings : CABAC / 5 Ref Frames Format settings, CABAC : Yes Format settings, Reference : 5 frames Codec ID : V_MPEG4/ISO/AVC Duration : 1 h 43 min Bit rate : 7 625 kb/s Width : 1 920 pixels Height : 820 pixels Display aspect ratio : 2.35:1 Frame rate mode : Constant Frame rate : 23.976 (24000/1001) FPS Color space : YUV Chroma subsampling : 4:2:0 Bit depth : 8 bits Scan type : Progressive Bits/(Pixel*Frame) : 0.202 Stream size : 5.49 GiB (89%) Title : -=DoMiNo=- Writing library : x264 core 164 r3107+58M ae98796 t_mod_New | by -=DoMiNo=- | X86_64] Encoding settings : cabac=1 / ref=5 / deblock=1:-2:-2 / analyse=0x3:0x133 / me=umh / subme=10 / psy=1 / fade_compensate=0.00 / psy_rd=1.03:0.02 / mixed_ref=1 / me_range=40 / chroma_me=1 / trellis=2 / 8x8dct=1 / cqm=0 / deadzone=21,11 / fast_pskip=0 / chroma_qp_offset=-3 / threads=24 / lookahead_threads=4 / sliced_threads=0 / nr=0 / decimate=1 / interlaced=0 / bluray_compat=0 / constrained_intra=0 / fgo=0 / bframes=9 / b_pyramid=2 / b_adapt=2 / b_bias=0 / direct=3 / weightb=1 / open_gop=0 / weightp=2 / keyint=240 / keyint_min=23 / scenecut=40 / intra_refresh=0 / rc_lookahead=60 / rc=crf / mbtree=0 / crf=19.5000 / qcomp=0.70 / qpmin=0:0:0 / qpmax=69:69:69 / qpstep=4 / vbv_maxrate=50000 / vbv_bufsize=62500 / crf_max=0.0 / nal_hrd=none / filler=0 / ip_ratio=1.35 / pb_ratio=1.22 / aq=3:0.80 / aq-sensitivity=10.00 / aq-factor=1.00:1.00:1.00:1.00 / aq2=0 / aq3=0 Language : English Default : Yes Forced : No Color range : Limited Color primaries : BT.709 Transfer characteristics : BT.709 Matrix coefficients : BT.709 Audio #1 ID : 2 Format : AC-3 Format/Info : Audio Coding 3 Commercial name : Dolby Digital Codec ID : A_AC3 Duration : 1 h 43 min Bit rate mode : Constant Bit rate : 448 kb/s Channel(s) : 2 channels Channel layout : L R Sampling rate : 48.0 kHz Frame rate : 31.250 FPS (1536 SPF) Compression mode : Lossy Stream size : 330 MiB (5%) Title : Dub Language : Russian Service kind : Complete Main Default : Yes Forced : No Audio #2 ID : 3 Format : AC-3 Format/Info : Audio Coding 3 Commercial name : Dolby Digital Codec ID : A_AC3 Duration : 1 h 43 min Bit rate mode : Constant Bit rate : 448 kb/s Channel(s) : 6 channels Channel layout : L R C LFE Ls Rs Sampling rate : 48.0 kHz Frame rate : 31.250 FPS (1536 SPF) Compression mode : Lossy Stream size : 330 MiB (5%) Title : Original Language : English Service kind : Complete Main Default : No Forced : No Text #1 ID : 4 Format : UTF-8 Codec ID : S_TEXT/UTF8 Codec ID/Info : UTF-8 Plain Text Duration : 1 h 42 min Bit rate : 79 b/s Frame rate : 0.165 FPS Count of elements : 1015 Stream size : 59.6 KiB (0%) Language : Russian Default : No Forced : No Text #2 ID : 5 Format : UTF-8 Codec ID : S_TEXT/UTF8 Codec ID/Info : UTF-8 Plain Text Duration : 1 h 37 min Bit rate : 55 b/s Frame rate : 0.169 FPS Count of elements : 988 Stream size : 39.7 KiB (0%) Language : English Default : No Forced : No Menu 00:00:00.000 : en:Chapter 1 00:05:31.122 : en:Chapter 2 00:10:49.774 : en:Chapter 3 00:15:35.434 : en:Chapter 4 00:23:46.883 : en:Chapter 5 00:29:59.798 : en:Chapter 6 00:36:06.789 : en:Chapter 7 00:39:56.602 : en:Chapter 8 00:42:57.491 : en:Chapter 9 00:46:56.355 : en:Chapter 10 00:51:25.624 : en:Chapter 11 00:54:12.123 : en:Chapter 12 00:57:33.992 : en:Chapter 13 00:59:07.627 : en:Chapter 14 01:02:32.415 : en:Chapter 15 01:09:38.883 : en:Chapter 16 01:13:13.097 : en:Chapter 17 01:16:40.512 : en:Chapter 18 01:18:27.077 : en:Chapter 19 01:24:16.801 : en:Chapter 20 01:27:03.134 : en:Chapter 21 01:33:43.408 : en:Chapter 22 01:37:01.273 : en:Chapter 23 01:39:04.979 : en:Chapter 24
Релиз: Присоединяйся к: Кликай на баннеры.

Всего файлов в раздаче: 1 
Keeping Mum.2005.DUB.BDRip.1080p.x264.seleZen.mkv6.14 GB

Кто качает (только для создателя раздачи и модераторов): Локальные пиры отсутствуют

Комментарии


Зарегистрируйтесь чтобы добавить комментарий
Торрент клиент
byTorrent - программа для загрузки торрент-файлов.

Скачать byTorrent.exe (1,5 МБ)

Скачать byTorrent.zip (0,6 МБ)

Поддержи torrent.by
российских рублей
(300 российских рублей это 4$)

Обратная связь rss

End game ©