↑↓torrent.by
Поиск
Логин:  Регистрация
Пароль:

Тьма человеческая / Тьма человека / Darkness of Man (2024) WEB-DL 1080p от JNS82 | L

download Скачать торрент-файл   magnet Магнитная ссылка Размер: 7.68 GB Добавлен: 2024-05-10 05:00
Пиры будут получены из сети DHT
Последний сидер был замечен вчера в 23:00
Тьма человеческая / Тьма человека / Darkness of Man Год выпуска: 2024 Выпущено: США / JCB Pictures, Robotic Donut, Sandaled Kid Productions, VMI Worldwide Жанр: боевик, триллер Режиссер: Джеймс Каллен Брэссак / James Cullen Bressack В ролях: Жан-Клод Ван Дамм, Эмерсон Мин, Кристанна Локен, Питер Ким, Стикки Фингаз, Спенсер Бреслин, Ли Джи-ён, Андрей Ивченко, Зак Уорд, Шеннен Доэрти, Чжин Хва Хванг, Синтия Ротрок, Уэстон Кейдж, Кристос Эндрюс, Шэйн Юн О фильме: Расселл Хэтч, агент Интерпола, неожиданно становится опекуном для маленького Джейдена, сына его покойной возлюбленной, которая работала его информатором и погибла во время полицейской операции. Хэтч дал торжественное обещание матери мальчика обеспечить безопасность её сына и его дедушки. Теперь, на фоне войны между преступными группировками в Лос-Анджелесе, он должен выполнить своё обещание, стоит это чего угодно, защищая их от надвигающейся угрозы. Продолжительность: 01:48:38 Перевод: Любительский (многоголосый, закадровый) | AlphaProject Субтитры: Английские Автор релиза: JNS82. Формат: MKV Качество: WEB-DL 1080p Видео: MPEG-4 AVC, 9282 Кбит/с, (2,40:1), 1920x800, 23,976 fps Аудио #1: AC3, 2 ch, 192 Кбит/с | RUS | Аудио #2: E-AC3, 6 ch, 640 Кбит/с | ENG |
[+] MediaInfoОбщее Уникальный идентификатор : 339346229821612238176486954979056674038 (0xFF4BB4E0A589B7ECBDDDD8196DC7E4F6) Полное имя : D:TorrentsDarkness.of.Man.2024.1080p_от_JNS82.mkv Формат : Matroska Версия формата : Version 4 Размер файла : 7,68 Гбайт Продолжительность : 1 ч. 48 м. Общий поток : 10,1 Мбит/сек Название фильма : Darkness.of.Man.2024.1080p_от_JNS82 Дата кодирования : UTC 2024-05-09 18:26:23 Программа кодирования : mkvmerge v79.0 ('Funeral Pyres') 64-bit Библиотека кодирования : libebml v1.4.4 + libmatroska v1.7.1 Видео Идентификатор : 1 Формат : AVC Формат/Информация : Advanced Video Codec Профиль формата : High@L4 Настройки формата : CABAC / 4 Ref Frames Параметр CABAC формата : Да Параметр RefFrames формата : 4 кадра Идентификатор кодека : V_MPEG4/ISO/AVC Продолжительность : 1 ч. 48 м. Вид битрейта : Постоянный Битрейт : 9 282 Кбит/сек Номинальный битрейт : 10 000 Кбит/сек Ширина : 1 920 пикселей Высота : 800 пикселей Соотношение сторон : 2,40:1 Режим частоты кадров : Постоянный Частота кадров : 23,976 (24000/1001) кадра/сек Цветовое пространство : YUV Субдискретизация насыщенности : 4:2:0 Битовая глубина : 8 бит Тип развёртки : Прогрессивная Бит/(Пиксели*Кадры) : 0.252 Размер потока : 7,04 Гбайт (92%) Default : Да Forced : Нет Цветовой диапазон : Limited Основные цвета : BT.709 Характеристики трансфера : BT.709 Коэффициенты матрицы : BT.709 Аудио #1 Идентификатор : 2 Формат : AC-3 Формат/Информация : Audio Coding 3 Коммерческое название : Dolby Digital Идентификатор кодека : A_AC3 Продолжительность : 1 ч. 48 м. Вид битрейта : Постоянный Битрейт : 192 Кбит/сек Каналы : 2 канала Channel layout : L R Частота : 48,0 КГц Частота кадров : 31,250 кадров/сек (1536 SPF) Метод сжатия : С потерями Размер потока : 149 Мбайт (2%) Заголовок : MVO - AlphaProject Язык : Russian Service kind : Complete Main Default : Да Forced : Нет Аудио #2 Идентификатор : 3 Формат : E-AC-3 Формат/Информация : Enhanced AC-3 Коммерческое название : Dolby Digital Plus Идентификатор кодека : A_EAC3 Продолжительность : 1 ч. 48 м. Вид битрейта : Постоянный Битрейт : 640 Кбит/сек Каналы : 6 каналов Channel layout : L R C LFE Ls Rs Частота : 48,0 КГц Частота кадров : 31,250 кадров/сек (1536 SPF) Метод сжатия : С потерями Размер потока : 497 Мбайт (6%) Язык : English Service kind : Complete Main Default : Нет Forced : Нет Текст Идентификатор : 4 Формат : UTF-8 Идентификатор кодека : S_TEXT/UTF8 Идентификатор кодека/Информация : UTF-8 Plain Text Продолжительность : 1 ч. 47 м. Битрейт : 39 бит/сек Count of elements : 1277 Размер потока : 31,2 Кбайт (0%) Язык : English Default : Нет Forced : Нет

Всего файлов в раздаче: 1 
Darkness.of.Man.2024.1080p_от_JNS82.mkv7.68 GB

Похожие раздачи по запросу - Тьма
2024-05-17 magnet Обитель зла: Бесконечная тьма / Resident Evil: Infinite Darkness [S01] (2021) WEB-DLRip-AVC | КПК | Jaskier 554.81 MB ↑ 0 ↓ 0
2024-05-17 magnet Тьма человеческая / Тьма человека / Darkness of Man (2024) WEB-DL 1080p от New-Team | P | TVShows 7.82 GB ↑ 0 ↓ 1
2024-05-17 magnet Тьма человеческая / Тьма человека / Darkness of Man (2024) WEB-DLRip от New-Team | P | TVShows 1.46 GB ↑ 0 ↓ 0
2024-05-17 magnet Тьма человеческая / Тьма человека / Darkness of Man (2024) WEB-DL 720p от селезень | P | TVShows 3.62 GB ↑ 0 ↓ 2
2024-05-10 magnet Тьма человеческая / Тьма человека / Darkness of Man (2024) WEB-DLRip от JNS82 | L 1.46 GB ↑ 1 ↓ 0
2024-04-23 magnet Тьма играет в куклы / Кукольная анимация / Stopmotion (2023) WEB-DLRip от New-Team | P2 | ViruseProject 1.46 GB ↑ 0 ↓ 0
2024-04-22 magnet Кукольная анимация / Тьма играет в куклы / Stopmotion (2023) WEB-DL 1080p | ViruseProject 5.23 GB ↑ 0 ↓ 0

Комментарии

Makssim
Клоду уже 60 лет ,а прыгает


Зарегистрируйтесь чтобы добавить комментарий
Торрент клиент
byTorrent - программа для загрузки торрент-файлов.

Скачать byTorrent.exe (1,5 МБ)

Скачать byTorrent.zip (0,6 МБ)

Поддержи torrent.by
российских рублей
(300 российских рублей это 4$)

Обратная связь rss

End game ©