↑↓torrent.by
Поиск
Логин:  Регистрация
Пароль:

Без глазури / Незамороженный / Unfrosted (2024) WEB-DLRip 720p от DoMiNo | P | Red Head Sound

download Скачать торрент-файл   magnet Магнитная ссылка Размер: 2.34 GB Добавлен: 2024-05-10 11:00
Пиры будут получены из сети DHT
Последний сидер был замечен 2024-05-10 11:00
Информация о фильме Название: Без глазури / Незамороженный Оригинальное название: Unfrosted Год выпуска: 2024 Жанр: комедия, биография, история Режиссер: Джерри Сайнфелд / Jerry Seinfeld В ролях: Джерри Сайнфелд, Хью Грант, Эми Шумер, Джим Гэффиган, Мелисса Маккарти, Джеймс Марсден, Кристиан Слейтер, Рэйчел Харрис, Эфквейк, Дэн Леви (II), Томас Леннон, Седрик «Развлекатель», Мария Бакалова, Билл Бёрр, Фред Армисен, Джек МакБрайер, Дин Норрис, Эдриан Мартинес, Бобби Мойнихан, Питер Динклэйдж, Дэррелл Хэммонд, Седрик Ярброу, Себастьян Манискалко, Джон Хэмм, Джон Слэттери, Джефф Льюис, Джордж Уоллес, Эндрю Дэйли, Ронни Чиэн, Тони Хэйл, Патрик Уорбертон, Дрю Тарвер, Макс Гринфилд, Кайл Данниган, Гордон Тарпли, Бетт Бентли, Джон Форест, Джеррен Холл, Уилл Аллан, Томас Силкотт, Исаак Бай, Имон Дж. Рош, Апарна Нанчерла, Александра Вентворт О фильме: Во времена, когда все завтракали молоком и хлопьями, корпорации начали борьбу за производство выпечки, которая изменит мир. Комедия о «Поп-тарт» от Джерри Сайнфелда. Выпущено: США / Columbus 81 Productions, Netflix Studios Продолжительность: 01:36:15 Перевод: Профессиональный (многоголосый, закадровый) | Red Head Sound Субтитры: Русские (full), английские Файл Формат: Matroska Качество: WEB-DLRip 720p Видео: 1280x692 at 24.000 fps, x264@L4.1, ~2834 kbps Аудио 1: AC3, 2 ch, ~192 kbps - | Русский | Аудио 2: AC3, 6 ch, ~448 kbps - | Английский | Формат субтитров: softsub (SRT) ***Рип от: -=DoMiNo=-
[+] M/IGeneral Unique ID : 243675652998902438487932700049740522140 (0xB752394347D3225AC45F70EDF5C1E29C) Complete name : S:Unfrosted.2023.MVO.WEB-DLRip.720p.x264.seleZen.mkv Format : Matroska Format version : Version 4 File size : 2.34 GiB Duration : 1 h 36 min Overall bit rate : 3 476 kb/s Frame rate : 24.000 FPS Movie name : Unfrosted.2023.MVO.WEB-DLRip.720p.x264.seleZen Encoded date : 2024-05-09 12:14:24 UTC Writing application : mkvmerge v84.0 ('Sleeper') 64-bit Writing library : libebml v1.4.5 + libmatroska v1.7.1 Cover : Yes Attachments : cover.jpg / small_cover.jpg Video ID : 1 Format : AVC Format/Info : Advanced Video Codec Format profile : High@L4.1 Format settings : CABAC / 5 Ref Frames Format settings, CABAC : Yes Format settings, Reference : 5 frames Codec ID : V_MPEG4/ISO/AVC Duration : 1 h 36 min Bit rate : 2 834 kb/s Width : 1 280 pixels Height : 692 pixels Display aspect ratio : 1.85:1 Frame rate mode : Constant Frame rate : 24.000 FPS Color space : YUV Chroma subsampling : 4:2:0 Bit depth : 8 bits Scan type : Progressive Bits/(Pixel*Frame) : 0.133 Stream size : 1.91 GiB (82%) Title : -=DoMiNo=- Writing library : x264 core 164 r3190 -DoMiNo Encoding settings : cabac=1 / ref=5 / deblock=1:0:0 / analyse=0x3:0x133 / me=umh / subme=10 / psy=1 / psy_rd=1.00:0.00 / mixed_ref=1 / me_range=32 / chroma_me=1 / trellis=2 / 8x8dct=1 / cqm=0 / deadzone=21,11 / fast_pskip=0 / chroma_qp_offset=-2 / threads=22 / lookahead_threads=5 / sliced_threads=0 / nr=0 / decimate=1 / interlaced=0 / bluray_compat=0 / constrained_intra=0 / bframes=12 / b_pyramid=2 / b_adapt=2 / b_bias=0 / direct=3 / weightb=1 / open_gop=0 / weightp=2 / keyint=250 / keyint_min=24 / scenecut=40 / intra_refresh=0 / rc_lookahead=60 / rc=crf / mbtree=0 / crf=19.3 / qcomp=0.60 / qpmin=0 / qpmax=69 / qpstep=4 / vbv_maxrate=50000 / vbv_bufsize=62500 / crf_max=0.0 / nal_hrd=none / filler=0 / ip_ratio=1.35 / pb_ratio=1.30 / aq=1:1.00 Language : English Default : Yes Forced : No Color range : Limited Color primaries : BT.709 Transfer characteristics : BT.709 Matrix coefficients : BT.709 Audio #1 ID : 2 Format : AC-3 Format/Info : Audio Coding 3 Commercial name : Dolby Digital Codec ID : A_AC3 Duration : 1 h 36 min Bit rate mode : Constant Bit rate : 192 kb/s Channel(s) : 2 channels Channel layout : L R Sampling rate : 48.0 kHz Frame rate : 31.250 FPS (1536 SPF) Compression mode : Lossy Stream size : 132 MiB (6%) Title : MVO -Red Head Sound Language : Russian Service kind : Complete Main Default : Yes Forced : No Dialog Normalization : -31 dB dialnorm_Average : -31 dB dialnorm_Minimum : -31 dB dialnorm_Maximum : -31 dB Audio #2 ID : 3 Format : AC-3 Format/Info : Audio Coding 3 Commercial name : Dolby Digital Codec ID : A_AC3 Duration : 1 h 36 min Bit rate mode : Constant Bit rate : 448 kb/s Channel(s) : 6 channels Channel layout : L R C LFE Ls Rs Sampling rate : 48.0 kHz Frame rate : 31.250 FPS (1536 SPF) Compression mode : Lossy Stream size : 308 MiB (13%) Language : English Service kind : Complete Main Default : Yes Forced : No Dialog Normalization : -31 dB cmixlev : -4.5 dB surmixlev : -6 dB dialnorm_Average : -31 dB dialnorm_Minimum : -31 dB dialnorm_Maximum : -31 dB Text #1 ID : 4 Format : UTF-8 Codec ID : S_TEXT/UTF8 Codec ID/Info : UTF-8 Plain Text Duration : 1 h 32 min Bit rate : 128 b/s Frame rate : 0.273 FPS Count of elements : 1517 Stream size : 87.1 KiB (0%) Title : Full Language : Russian Default : No Forced : No Text #2 ID : 5 Format : UTF-8 Codec ID : S_TEXT/UTF8 Codec ID/Info : UTF-8 Plain Text Duration : 21 min 41 s Bit rate : 1 b/s Frame rate : 0.005 FPS Count of elements : 6 Stream size : 184 Bytes (0%) Title : Forced Language : English Default : No Forced : No Text #3 ID : 6 Format : UTF-8 Codec ID : S_TEXT/UTF8 Codec ID/Info : UTF-8 Plain Text Duration : 1 h 26 min Bit rate : 92 b/s Frame rate : 0.314 FPS Count of elements : 1632 Stream size : 58.8 KiB (0%) Title : Full Language : English Default : No Forced : No Text #4 ID : 7 Format : UTF-8 Codec ID : S_TEXT/UTF8 Codec ID/Info : UTF-8 Plain Text Duration : 1 h 32 min Bit rate : 100 b/s Frame rate : 0.354 FPS Count of elements : 1970 Stream size : 68.2 KiB (0%) Title : SDH Language : English Default : No Forced : No Menu 00:00:00.000 : en:Chapter 01 00:05:50.000 : en:Chapter 02 00:11:40.000 : en:Chapter 03 00:17:30.000 : en:Chapter 04 00:23:20.000 : en:Chapter 05 00:29:10.000 : en:Chapter 06 00:35:00.000 : en:Chapter 07 00:40:50.000 : en:Chapter 08 00:46:40.000 : en:Chapter 09 00:52:30.000 : en:Chapter 10 00:58:20.000 : en:Chapter 11 01:04:10.000 : en:Chapter 12 01:10:00.000 : en:Chapter 13 01:15:50.000 : en:Chapter 14 01:21:40.000 : en:Chapter 15 01:27:30.000 : en:Chapter 16 01:33:20.000 : en:Chapter 17
Релиз: Присоединяйся к: Кликай на баннеры.

Всего файлов в раздаче: 1 
Unfrosted.2023.MVO.WEB-DLRip.720p.x264.seleZen.mkv2.34 GB

Похожие раздачи по запросу - Без
2024-05-20 magnet Беги без оглядки / Running Scared (2006) BDRip 1080p by msltel | D, P, A 12.70 GB ↑ 0 ↓ 0
2024-05-18 magnet Без следа [01-22 из 22] (2011-2012) WEB-DLRip-AVC 15.46 GB ↑ 0 ↓ 0
2024-05-14 magnet Без границ / Den grænseløse / Boundless (2024) WEB-DLRip от New-Team | P2 | ViruseProject 1.46 GB ↑ 0 ↓ 0
2024-05-13 magnet Безграничное / Без границ / Den graenselose (2024) WEB-DL 1080p | ViruseProject 6.60 GB ↑ 0 ↓ 0
2024-05-10 magnet Без глазури: История поп-тартсов / Незамороженный / Unfrosted (2024) WEB-DLRip от MegaPeer | P | TVShows, Red Head Sound 1.46 GB ↑ 0 ↓ 0
2024-05-09 magnet Без глазури: История поп-тартсов / Незамороженный / Unfrosted (2024) WEB-DL 1080p от New-Team | P 4.16 GB ↑ 0 ↓ 0
2024-05-07 magnet Без глазури / Без глазурі / Unfrosted (2024) WEB-DL 1080p | D | Netflix | UKR 4.63 GB ↑ 0 ↓ 0

Комментарии


Зарегистрируйтесь чтобы добавить комментарий
Торрент клиент
byTorrent - программа для загрузки торрент-файлов.

Скачать byTorrent.exe (1,5 МБ)

Скачать byTorrent.zip (0,6 МБ)

Поддержи torrent.by
российских рублей
(300 российских рублей это 4$)

Обратная связь rss

End game ©