↑↓torrent.by
Поиск
Логин:  Регистрация
Пароль:

Чудовище / Monstrous (2022) BDRip-AVC от DoMiNo & селезень | D

download Скачать торрент-файл   magnet Магнитная ссылка Размер: 1.69 GB Добавлен: 2024-05-10 11:00
Пиры будут получены из сети DHT
Последний сидер был замечен сегодня в 02:36
Информация о фильме Название: Чудовище Оригинальное название: Monstrous Год выхода: 2022 Жанр: Драма, ужасы Режиссер: Крис Сивертсон В ролях: Кристина Риччи, Сантино Барнард, Дон Дюррелл, Коллин Кэмп, Лью Темпл, Кэрол Энн Уоттс, Питер Ходж, Ник Валлелонга, Салли Элберт, Рэйчел Эдлоу О фильме: Скрываясь от бывшего мужа-абьюзера, женщина и ее 7-летний сын находят убежище. Однако здесь героев подстерегает куда более опасное чудовище. Страна: США Студия: Burning Sky Films, Lucky 13 Productions, Red Coral Productions Продолжительность: 01:28:39 Перевод: Дублированный | Мосфильм-Мастер Субтитры: Английские Файл Формат: Matroska Качество: BDRip-AVC Видео: 1024x426 at 23.976 fps, x264@L4.1, ~1954 kbps Аудио 1: AC3, 6 ch, ~384 kbps - | Русский | Аудио 2: AC3, 6 ch, ~384 kbps - | Английский | Формат субтитров: softsub (SRT) ***Рип от: -=DoMiNo=-
[+] M/IGeneral Unique ID : 296060487588762765202861500566712265359 (0xDEBB2D03D4C4D4DE38977CEDA7B6AA8F) Complete name : D:Monstrous.2022.BDRip.x264.seleZen.mkv Format : Matroska Format version : Version 4 File size : 1.69 GiB Duration : 1 h 28 min Overall bit rate : 2 724 kb/s Movie name : Monstrous.2022.BDRip.x264.seleZen Encoded date : UTC 2022-10-27 17:59:38 Writing application : mkvmerge v71.0.0 ('Altitude') 64-bit Writing library : libebml v1.4.4 + libmatroska v1.7.1 Cover : Yes Attachments : cover.jpg / small_cover.jpg Video ID : 1 Format : AVC Format/Info : Advanced Video Codec Format profile : High@L4.1 Format settings : CABAC / 14 Ref Frames Format settings, CABAC : Yes Format settings, Reference : 14 frames Codec ID : V_MPEG4/ISO/AVC Duration : 1 h 28 min Bit rate : 1 954 kb/s Width : 1 024 pixels Height : 426 pixels Display aspect ratio : 2.40:1 Frame rate mode : Constant Frame rate : 23.976 (24000/1001) FPS Color space : YUV Chroma subsampling : 4:2:0 Bit depth : 8 bits Scan type : Progressive Bits/(Pixel*Frame) : 0.187 Stream size : 1.21 GiB (72%) Title : -=DoMiNo=- Writing library : x264 core 164 r3099+55M 141af3f t_mod_New | by -=DoMiNo=- | X86_64 Encoding settings : cabac=1 / ref=14 / deblock=1:-3:-2 / analyse=0x3:0x133 / me=umh / subme=10 / psy=1 / fade_compensate=0.00 / psy_rd=1.05:0.00 / mixed_ref=1 / me_range=32 / chroma_me=1 / trellis=2 / 8x8dct=1 / cqm=0 / deadzone=21,11 / fast_pskip=0 / chroma_qp_offset=-2 / threads=17 / lookahead_threads=3 / sliced_threads=0 / nr=0 / decimate=1 / interlaced=0 / bluray_compat=0 / constrained_intra=0 / fgo=0 / bframes=12 / b_pyramid=2 / b_adapt=2 / b_bias=0 / direct=1 / weightb=1 / open_gop=0 / weightp=2 / keyint=250 / keyint_min=23 / scenecut=40 / intra_refresh=0 / rc_lookahead=60 / rc=crf / mbtree=0 / crf=17.3000 / qcomp=0.65 / qpmin=0:0:0 / qpmax=69:69:69 / qpstep=4 / vbv_maxrate=50000 / vbv_bufsize=62500 / crf_max=0.0 / nal_hrd=none / filler=0 / ip_ratio=1.35 / pb_ratio=1.25 / aq=3:0.80 / aq-sensitivity=10.00 / aq-factor=1.00:1.00:1.00 / aq2=0 / aq3=0 Language : English Default : Yes Forced : No Color range : Limited Matrix coefficients : BT.709 Audio #1 ID : 2 Format : AC-3 Format/Info : Audio Coding 3 Commercial name : Dolby Digital Codec ID : A_AC3 Duration : 1 h 28 min Bit rate mode : Constant Bit rate : 384 kb/s Channel(s) : 6 channels Channel layout : L R C LFE Ls Rs Sampling rate : 48.0 kHz Frame rate : 31.250 FPS (1536 SPF) Compression mode : Lossy Stream size : 243 MiB (14%) Title : DUB Language : Russian Service kind : Complete Main Default : Yes Forced : No Audio #2 ID : 3 Format : AC-3 Format/Info : Audio Coding 3 Commercial name : Dolby Digital Codec ID : A_AC3 Duration : 1 h 28 min Bit rate mode : Constant Bit rate : 384 kb/s Channel(s) : 6 channels Channel layout : L R C LFE Ls Rs Sampling rate : 48.0 kHz Frame rate : 31.250 FPS (1536 SPF) Compression mode : Lossy Stream size : 244 MiB (14%) Title : Original Language : English Service kind : Complete Main Default : No Forced : No Text ID : 4 Format : UTF-8 Codec ID : S_TEXT/UTF8 Codec ID/Info : UTF-8 Plain Text Duration : 1 h 26 min Bit rate : 50 b/s Count of elements : 1253 Stream size : 31.6 KiB (0%) Title : SDH Language : English Default : No Forced : No Menu 00:00:00.000 : en:Chapter 01 00:07:10.680 : en:Chapter 02 00:14:18.524 : en:Chapter 03 00:20:56.380 : en:Chapter 04 00:28:09.062 : en:Chapter 05 00:37:26.744 : en:Chapter 06 00:47:41.233 : en:Chapter 07 00:55:36.041 : en:Chapter 08 01:02:05.889 : en:Chapter 09 01:09:31.376 : en:Chapter 10 01:15:45.791 : en:Chapter 11 01:20:40.335 : en:Chapter 12
Релиз: Присоединяйся к: Кликай на баннеры.

Всего файлов в раздаче: 1 
Monstrous.2022.BDRip.x264.seleZen.mkv1.69 GB

Похожие раздачи по запросу - Чудовище
2024-05-02 magnet Ведьма и чудовище / Majo to Yajuu [S01] (2024) WEBRip 1080p by VLDeshka | D, L | StudioBand, DreamCast 7.85 GB ↑ 0 ↓ 0
2024-04-03 magnet Ведьма и чудовище / Majo to Yajuu [01x01-11 из 12] (2024) WEBRip 1080p by VLDeshka | D, L | StudioBand, DreamCast 6.93 GB ↑ 0 ↓ 0

Комментарии


Зарегистрируйтесь чтобы добавить комментарий
Торрент клиент
byTorrent - программа для загрузки торрент-файлов.

Скачать byTorrent.exe (1,5 МБ)

Скачать byTorrent.zip (0,6 МБ)

Поддержи torrent.by
российских рублей
(300 российских рублей это 4$)

Обратная связь rss

End game ©