↑↓torrent.by
Поиск
Логин:  Регистрация
Пароль:

Шифр [S04] (2023) WEBRip 1080p от ExKinoRay

download Скачать торрент-файл   magnet Магнитная ссылка Размер: 12.00 GB Раздают: 1 Качают: 0 Добавлен: 2024-05-10 11:00
Пиры будут получены из сети DHT
Последний сидер был замечен сегодня в 07:47
Информация о фильме Название: Шифр-4 Год выхода: 2023 Жанр: Детектив, история Режиссер: Вера Сторожева В ролях: Марьяна Спивак, Екатерина Вилкова, Елена Панова, Яна Осипова, Сергей Пускепалис, Виталия Корниенко, Сергей Медведев (III), Максим Стоянов, Иван Шибанов, Светлана Колпакова, Сергей Попов, Николай Токарев, Семён Шкаликов, Дарья Мингазетдинова, Ксения Попович, Екатерина Вуличенко, Максим Битюков, Наталья Суркова, Анастасия Великородная, Светлана Тома, Любовь Руднева, Татьяна Яхина, Анна Королёва (II), Марина Хейстонен, Егор Кутенков, Татьяна Полонская, Илья Малаков, Михаил Крылов О фильме: Подруги, которых связывает военное прошлое: работа в спецотделе ГРУ, продолжают вести расследования и помогать следственным органам в особо запутанных делах. На этот раз Ирина и Катерина отправляются в Кавминводы, куда приглашает их Анна. Она вместе с Проскуриным планирует сыграть свадьбу и отдохнуть. В Пятигорске Анна встречает своего боевого товарища, Михеева, который обращается к ней за помощью в разгадке немецкого шифра. Вскоре Михеева убивают, а девушкам и Константину Ивановичу приходится начать расследование – первое в череде очередных сложных и опасных дел. Личная жизнь подруг не менее увлекательна. На курорте Ирина, находящаяся в стадии развода, знакомится с музыкантом Евгением, и завязавшийся роман становится для неё гораздо большим, чем простой курортной интрижкой. Катерина вынуждена соседствовать с Машей и Толей - бывшей женщиной и сыном Григория. Мать Григория благоволит к Маше и внуку, и Катерина перестаёт чувствовать себя хозяйкой в собственном доме. В Москву возвращается Соня, которая не представляет жизни без любимой работы в МУРе. А над безоблачным счастьем Проскурина и Анны сгущаются тучи… Страна: Россия Студия: Sony Pictures Television, «Леан-М», Продюсерское объединение «Победа» Перевод: Не требуется Файл Формат: MKV Качество: WEBRip 1080p Видео: MPEG-4 AVC, ~ 3200 Кбит/с, 1920x1080, 25 кадр/с Аудио: AC3, 2 ch, 192 Кбит/с RUS Продолжительность: 8 х ~ 00:50:00 Язык: Русский Субтитры: Русские (SDH) Для слабослышащих Реклама: Отсутствует
[+] МИ General Unique ID : 38076040447188531831002696457648055208 (0x1CA52DBBC01B447E8FA24FD06FBFA3A8) Complete name : G:SHifr.S04.2023.WEB-DL.1080p.ExKinoRaySHifr.S04.E01.2023.WEB-DL.1080p.ExKinoRay.mkv Format : Matroska Format version : Version 4 File size : 1.20 GiB Duration : 50 min 57 s Overall bit rate : 3 370 kb/s Encoded date : UTC 2024-04-01 22:17:00 Writing application : mkvmerge v56.1.0 ('My Friend') 64-bit Writing library : libebml v1.4.2 + libmatroska v1.6.4 Video ID : 1 Format : AVC Format/Info : Advanced Video Codec Format profile : High@L4 Format settings : CABAC / 4 Ref Frames Format settings, CABAC : Yes Format settings, Reference frames : 4 frames Codec ID : V_MPEG4/ISO/AVC Duration : 50 min 57 s Bit rate : 3 176 kb/s Width : 1 920 pixels Height : 1 080 pixels Display aspect ratio : 16:9 Frame rate mode : Constant Frame rate : 25.000 FPS Color space : YUV Chroma subsampling : 4:2:0 Bit depth : 8 bits Scan type : Progressive Bits/(Pixel*Frame) : 0.061 Stream size : 1.13 GiB (94%) Writing library : x264 core 157 Encoding settings : cabac=1 / ref=4 / deblock=1:0:0 / analyse=0x3:0x133 / me=umh / subme=10 / psy=1 / psy_rd=1.00:0.00 / mixed_ref=1 / me_range=24 / chroma_me=1 / trellis=2 / 8x8dct=1 / cqm=0 / deadzone=21,11 / fast_pskip=1 / chroma_qp_offset=-2 / threads=34 / lookahead_threads=5 / sliced_threads=0 / nr=0 / decimate=1 / interlaced=0 / bluray_compat=0 / stitchable=1 / constrained_intra=0 / bframes=8 / b_pyramid=2 / b_adapt=2 / b_bias=0 / direct=3 / weightb=1 / open_gop=0 / weightp=2 / keyint=250 / keyint_min=25 / scenecut=40 / intra_refresh=0 / rc_lookahead=100 / rc=crf / mbtree=1 / crf=17.0 / qcomp=0.60 / qpmin=0 / qpmax=69 / qpstep=4 / ip_ratio=1.40 / aq=1:1.00 Language : Russian Default : Yes Forced : No Audio ID : 2 Format : AC-3 Format/Info : Audio Coding 3 Commercial name : Dolby Digital Codec ID : A_AC3 Duration : 50 min 57 s Bit rate mode : Constant Bit rate : 192 kb/s Channel(s) : 2 channels Channel layout : L R Sampling rate : 48.0 kHz Frame rate : 31.250 FPS (1536 SPF) Compression mode : Lossy Stream size : 70.0 MiB (6%) Language : Russian Service kind : Complete Main Default : Yes Forced : No Text ID : 3 Format : UTF-8 Codec ID : S_TEXT/UTF8 Codec ID/Info : UTF-8 Plain Text Duration : 49 min 48 s Bit rate : 108 b/s Frame rate : 0.289 FPS Count of elements : 865 Stream size : 39.7 KiB (0%) Title : "Русские" Language : Russian Default : No Forced : No
[+] Скриншоты
Релиз от:

Всего файлов в раздаче: 8 
SHifr.S04.E01.2023.WEB-DL.1080p.ExKinoRay.mkv1.20 GB
SHifr.S04.E02.2023.WEB-DL.1080p.ExKinoRay.mkv1.19 GB
SHifr.S04.E03.2023.WEB-DL.1080p.ExKinoRay.mkv2.18 GB
SHifr.S04.E04.2023.WEB-DL.1080p.ExKinoRay.mkv2.27 GB
SHifr.S04.E05.2023.WEB-DL.1080p.ExKinoRay.mkv1.25 GB
SHifr.S04.E06.2023.WEB-DL.1080p.ExKinoRay.mkv1.25 GB
SHifr.S04.E07.2023.WEB-DL.1080p.ExKinoRay.mkv1.31 GB
SHifr.S04.E08.2023.WEB-DL.1080p.ExKinoRay.mkv1.36 GB

Похожие раздачи по запросу - Шифр
2024-05-14 magnet Шифр [S04] (2024) WEB-DLRip-AVC от Generalfilm | КПК 1.83 GB ↑ 0 ↓ 0
2024-05-11 magnet Шифр [04х01-08 из 16] (2023) WEB-DL 1080p от Files-x 12.06 GB ↑ 0 ↓ 0
2024-05-10 magnet Шифр [S04] (2024) WEB-DLRip-AVC от Files-х 5.19 GB ↑ 0 ↓ 0
2024-05-10 magnet Шифр [04х01-08 из 16] (2023) WEB-DLRip от Files-x 5.20 GB ↑ 0 ↓ 0
2024-05-10 magnet Шифр [S04] (2023) WEB-DL 720p от ExKinoRay 7.73 GB ↑ 0 ↓ 0
2024-05-10 magnet Шифр [04х01-08 из 16] (2023) WEB-DLRip от Files-x 5.20 GB ↑ 0 ↓ 0
2024-05-10 magnet Шифр / Сезон: 4 / Серии: 1-8 из 16 [2023, детектив, WEBRip-AVC] от Aleksan55 5.20 GB ↑ 0 ↓ 0

Кто качает (только для создателя раздачи и модераторов):
ПользовательIP:портОтдалПринялОстатокСидируетТоррент клиентОбновился
1 Аноним 93.104.60.3:50054 2.73 GB 3.27 GB 0.00 B да -UT355W- 07:47 2024-05-19

Комментарии

jokerok999
Отличный сериал, тёплый, ламповый, свой)


Зарегистрируйтесь чтобы добавить комментарий
Торрент клиент
byTorrent - программа для загрузки торрент-файлов.

Скачать byTorrent.exe (1,5 МБ)

Скачать byTorrent.zip (0,6 МБ)

Поддержи torrent.by
российских рублей
(300 российских рублей это 4$)

Обратная связь rss

End game ©