↑↓torrent.by
Поиск
Логин:  Регистрация
Пароль:

Обнаженная муза Пьера Боннара / Bonnard, Pierre et Marthe (2023) WEB-DLRip от New-Team | D

download Скачать торрент-файл   magnet Магнитная ссылка Размер: 1.46 GB Добавлен: 2024-05-10 11:00
Пиры будут получены из сети DHT
Последний сидер был замечен 2024-05-17 23:13
Обнаженная муза Пьера Боннара / Bonnard, Pierre et Marthe Год выпуска: 2023 Выпущено: Франция, Бельгия / Canal+ , Ciné, Les Films du Kiosque, uMedia Family, Volapuk Жанр: драма, мелодрама, биография Режиссер: Мартен Прово / Martin Provost В ролях: Венсан Макень, Сесиль де Франс, Стэйси Мартин, Анук Гринбер, Грегуар Лепренс-Ренге, Андре Маркон, Элен Александридис, Петер Ван ден Бегин, Ивелин Амон, Сезар Домбой О фильме: Один из величайших художников нашего времени Пьер Боннар знаменит своими изысканными, полными ярких красок работами. Такой же насыщенной была и его личная жизнь. Таинственная муза, имя которой скрывалось более 30 лет, непрестанно испытывала мастера. Любовь, страсть, измены — их отношения походили на пламя, в котором один из них должен был сгореть. Продолжительность: 02:01:12 Перевод: Профессиональный (полное дублирование) | Пифагор Субтитры: Русские Раздача от: Автор релиза: JNS82. Формат: AVI Качество: WEB-DLRip Видео: 704x384 (1.85:1), 24.000 fps, XviD MPEG-4 ~ 1335 kbps avg, 0.206 bit/pixel, build 73 Аудио: 48 kHz, AC3 Dolby Digital, 3/2 (L,C,R,l,r) + LFE ch, ~ 384 kbps | RUS |
[+] MediaInfoОбщее Полное имя : D:TorrentsBonnard.Pierre.et.Marthe.2023.WEB-DLRip_от New-Team_by_JNS82Bonnard.Pierre.et.Marthe.2023.WEB-DLRip_от New-Team_by_JNS82.avi Формат : AVI Формат/Информация : Audio Video Interleave Размер файла : 1,46 Гбайт Продолжительность : 2 ч. 1 м. Общий поток : 1 729 Кбит/сек Программа кодирования : VirtualDubMod 1.5.10.2 (build 2540/release) Библиотека кодирования : VirtualDubMod build 2540/release Видео Идентификатор : 0 Формат : MPEG-4 Visual Профиль формата : Advanced Simple@L5 Настройки формата : BVOP1 / Custom Matrix Параметр BVOP формата : 1 Параметр QPel формата : Нет Параметр GMC формата : Без точки перехода Параметр матрицы формата : Выборочная Идентификатор кодека : XVID Идентификатор кодека/Подсказка : XviD Продолжительность : 2 ч. 1 м. Битрейт : 1 335 Кбит/сек Ширина : 704 пикселя Высота : 384 пикселя Соотношение сторон : 1,85:1 Частота кадров : 24,000 кадра/сек Цветовое пространство : YUV Субдискретизация насыщенности : 4:2:0 Битовая глубина : 8 бит Тип развёртки : Прогрессивная Метод сжатия : С потерями Бит/(Пиксели*Кадры) : 0.206 Размер потока : 1,13 Гбайт (77%) Библиотека кодирования : XviD 73 Аудио Идентификатор : 1 Формат : AC-3 Формат/Информация : Audio Coding 3 Коммерческое название : Dolby Digital Идентификатор кодека : 2000 Продолжительность : 2 ч. 1 м. Вид битрейта : Постоянный Битрейт : 384 Кбит/сек Каналы : 6 каналов Channel layout : L R C LFE Ls Rs Частота : 48,0 КГц Частота кадров : 31,250 кадров/сек (1536 SPF) Метод сжатия : С потерями Размер потока : 333 Мбайт (22%) Выравнивание : Разделение по промежуткам Продолжительность промежутка : 42 мс. (1,00 видеокадр) Время предзагрузки промежутка : 500 мс. Service kind : Complete Main

Всего файлов в раздаче: 2 
Bonnard.Pierre.et.Marthe.2023.WEB-DLRip_от New-Team_by_JNS82.avi1.46 GB
Bonnard.Pierre.et.Marthe.2023.WEB-DLRip_от New-Team_by_JNS82_[rus].srt98.44 kB

Похожие раздачи по запросу - Обнаженная
2024-05-11 magnet Обнаженная муза Пьера Боннара / Bonnard, Pierre et Marthe (2023) WEB-DLRip от ExKinoRay | D 744.30 MB ↑ 0 ↓ 0
2024-05-10 magnet Обнаженная муза Пьера Боннара / Bonnard, Pierre et Marthe (2023) WEB-DL 1080p | D 5.18 GB ↑ 0 ↓ 0
2023-08-09 magnet Голая графиня / Обнажённая графиня / Die nackte Gräfin (1971) DVDRip-AVC от ExKinoRay | L1 1.87 GB ↑ 0 ↓ 0

Кто качает (только для создателя раздачи и модераторов): Локальные пиры отсутствуют

Комментарии


Зарегистрируйтесь чтобы добавить комментарий
Торрент клиент
byTorrent - программа для загрузки торрент-файлов.

Скачать byTorrent.exe (1,5 МБ)

Скачать byTorrent.zip (0,6 МБ)

Поддержи torrent.by
российских рублей
(300 российских рублей это 4$)

Обратная связь rss

End game ©