↑↓torrent.by
Поиск
Логин:  Регистрация
Пароль:

Jeanne Mas - Désir D'insolence [24-bit Hi-Res, Remastered] (2000/2024) FLAC

download Скачать торрент-файл   magnet Магнитная ссылка Размер: 511.75 MB Добавлен: 2024-05-10 17:00
Пиры будут получены из сети DHT
Последний сидер был замечен 2024-05-19 07:36
Название: Désir D'insolence (Remastered) Исполнитель: Jeanne Mas Год: 2000/2024 Жанр: French-Chanson Издатель (лейбл): Zephyr Records Продолжительность: 00:42:19 Формат/Кодек: FLAC Тип рипа: Tracks Битрейт аудио: Lossless Разрядность: 24 Bit/44,1 kHz
[+] Трек-лист 01. Désir D'insolence (00:03:05) 02. Comme Nous Sommes (00:04:03) 03. Paul Et Le Paradis (00:03:09) 04. X-Tra-Ordinaire (00:03:23) 05. Chanson D'automne (00:01:17) 06. Innocence D'aimer (00:03:21) 07. Le Pont Mirabeau (00:01:13) 08. Pas Faire Ce Qu'il Faut (00:03:37) 09. Pas Grandi (00:03:06) 10. Le Sens Des Affaires (00:03:40) 11. Suzan S'en Va (00:02:21) 12. Le Monde Change (00:02:56) 13. Sauvez-Moi (00:03:54) 14. La Mort Du Loup (00:03:14)
[+] DRM foobar2000 1.5.5 / Замер динамического диапазона (DR) 1.1.1 ------------------------------------------------------------------------------- Анализ: Jeanne Mas / Désir D'insolence -------------------------------------------------------------------------------- DR Пики RMS Продолжительность трека -------------------------------------------------------------------------------- DR6 0.00 дБ -7.59 дБ 3:05 01-Désir D'insolence DR6 0.00 дБ -7.02 дБ 4:03 02-Comme Nous Sommes DR6 -0.13 дБ -7.14 дБ 3:09 03-Paul Et Le Paradis DR6 0.00 дБ -6.21 дБ 3:23 04-X-Tra-Ordinaire DR9 -0.08 дБ -11.46 дБ 1:17 05-Chanson D'automne DR6 0.00 дБ -6.47 дБ 3:21 06-Innocence D'aimer DR8 -0.17 дБ -9.78 дБ 1:13 07-Le Pont Mirabeau DR5 0.00 дБ -6.88 дБ 3:37 08-Pas Faire Ce Qu'il Faut DR6 0.00 дБ -7.68 дБ 3:06 09-Pas Grandi DR5 0.00 дБ -6.87 дБ 3:40 10-Le Sens Des Affaires DR9 -0.01 дБ -11.12 дБ 2:21 11-Suzan S'en Va DR6 -0.03 дБ -6.46 дБ 2:56 12-Le Monde Change DR7 0.00 дБ -8.58 дБ 3:54 13-Sauvez-Moi DR6 0.00 дБ -7.02 дБ 3:14 14-La Mort Du Loup -------------------------------------------------------------------------------- Количество треков: 14 Реальные значения DR: DR6 Частота: 44100 Гц Каналов: 2 Разрядность: 24 Битрейт: 1602 кбит/с Кодек: FLAC ================================================================================
Время раздачи: 24/7 (минимум до появления первых 3-5 скачавших, на раздачи не возвращаюсь) Первое правило участника файлообмена: "Скачал сам - дай скачать другому!"

Всего файлов в раздаче: 15 
01. Désir d'insolence.flac37.75 MB
02. Comme nous sommes.flac49.16 MB
03. Paul et le Paradis.flac36.88 MB
04. X-Tra-Ordinaire.flac41.53 MB
05. Chanson d'automne.flac14.23 MB
06. Innocence d'aimer.flac43.62 MB
07. Le pont Mirabeau.flac13.83 MB
08. Pas faire ce qu'il faut.flac44.84 MB
09. Pas grandi.flac36.70 MB
10. Le sens des affaires.flac46.07 MB
Показать все файлы

Похожие раздачи по запросу - Jeanne
2024-05-17 magnet Все любят Жанну / Tout le monde aime Jeanne / Everybody Loves Jeanne (2022) BDRip 720p от DoMiNo & селезень | D 3.84 GB ↑ 0 ↓ 0
2024-04-22 magnet Страсти Жанны д`Арк / La passion de Jeanne d'Arc (1928) BDRip-AVC от msltel | Sub 2.94 GB ↑ 0 ↓ 0
2023-10-07 magnet Жанна Дюбарри / Jeanne du Barry (2023) BDRip 1080p от ExKinoRay | D 13.72 GB ↑ 0 ↓ 0
2023-09-21 magnet Жанна Дюбарри / Jeanne du Barry (2023) BDRip 1080p от селезень | D 14.59 GB ↑ 0 ↓ 0
2023-09-21 magnet Жанна Дюбарри / Jeanne du Barry (2023) WEB-DL 1080p от селезень | D | Локализованная версия 5.14 GB ↑ 0 ↓ 0

Кто качает (только для создателя раздачи и модераторов): Локальные пиры отсутствуют

Комментарии


Зарегистрируйтесь чтобы добавить комментарий
Торрент клиент
byTorrent - программа для загрузки торрент-файлов.

Скачать byTorrent.exe (1,5 МБ)

Скачать byTorrent.zip (0,6 МБ)

Поддержи torrent.by
российских рублей
(300 российских рублей это 4$)

Обратная связь rss

End game ©