↑↓torrent.by
Поиск
Логин:  Регистрация
Пароль:

Проклятье Эбигейл / The Power (2021) HDRip-AVC от DoMiNo | iTunes

download Скачать торрент-файл   magnet Магнитная ссылка Размер: 1.45 GB Добавлен: 2024-05-10 17:00
Пиры будут получены из сети DHT
Последний сидер был замечен 2024-05-11 11:49
Информация о фильме Название: Проклятье Эбигейл Оригинальное название: The Power Год выхода: 2021 Жанр: Ужасы Режиссер: Коринна Фэйт В ролях: Роуз Уильямс, Марли Чешам, Дивин Генри, Эми Бет Хэйес, Пол Энтони-Барбер, Джон МакКей, Чарли Каррик, Роберт Гудман О фильме: События фильма разворачиваются в 1974 году в Великобритании во время забастовки шахтеров. После отключения электричества по всей стране в старой полуразрушенной больнице остается на дежурство молодая медсестра. Она чувствует незримое присутствие чего-то ужасного, что таится в этих стенах и вот-вот поглотит ее и все вокруг. «Проклятье Эбигейл» — фильм ужасов о молодой медсестре, которая противостоит темноте и тому, что скрывается в ней. Страна: Великобритания Студия: Air Street Films, BFI, Head Gear Films, Kreo Films FZ, Metrol Technology, Stigma Films Продолжительность: 01:32:56 Перевод: Дублированный | iTunes Субтитры: Английские Файл Формат: Matroska Качество: HDRip-AVC Видео: 1024x428 at 23.976 fps, x264@L4.1, ~1853 kbps Аудио: AC3, 6 ch, ~384 kbps - | Русский | Формат субтитров: softsub (SRT) ***Релиз от: -=DoMiNo=-
[+] M/IGeneral Unique ID : 26985403240647215262986293807471459810 (0x144D331A0CFD058808E410917638FDE2) Complete name : I:The.Power.2021.DUB.HDRip.x264.mkv Format : Matroska Format version : Version 4 File size : 1.45 GiB Duration : 1 h 32 min Overall bit rate : 2 239 kb/s Encoded date : UTC 2021-12-10 09:47:42 Writing application : mkvmerge v63.0.0 ('Everything') 64-bit Writing library : libebml v1.4.2 + libmatroska v1.6.4 Cover : Yes Attachments : cover.jpg / cover 2.jpg Video ID : 1 Format : AVC Format/Info : Advanced Video Codec Format profile : High@L4.1 Format settings : CABAC / 14 Ref Frames Format settings, CABAC : Yes Format settings, Reference : 14 frames Codec ID : V_MPEG4/ISO/AVC Duration : 1 h 32 min Bit rate : 1 853 kb/s Width : 1 024 pixels Height : 428 pixels Display aspect ratio : 2.40:1 Frame rate mode : Constant Frame rate : 23.976 (24000/1001) FPS Color space : YUV Chroma subsampling : 4:2:0 Bit depth : 8 bits Scan type : Progressive Bits/(Pixel*Frame) : 0.176 Stream size : 1.20 GiB (83%) Title : -=DoMiNo=- Writing library : x264 core 164 r3079 d9a19f0 Encoding settings : cabac=1 / ref=14 / deblock=1:-2:-2 / analyse=0x3:0x133 / me=umh / subme=10 / psy=1 / psy_rd=1.09:0.15 / mixed_ref=1 / me_range=32 / chroma_me=1 / trellis=2 / 8x8dct=1 / cqm=0 / deadzone=21,11 / fast_pskip=0 / chroma_qp_offset=-3 / threads=13 / lookahead_threads=3 / sliced_threads=0 / nr=0 / decimate=0 / interlaced=0 / bluray_compat=0 / constrained_intra=0 / bframes=10 / b_pyramid=2 / b_adapt=2 / b_bias=0 / direct=3 / weightb=1 / open_gop=0 / weightp=2 / keyint=250 / keyint_min=23 / scenecut=40 / intra_refresh=0 / rc_lookahead=60 / rc=2pass / mbtree=0 / bitrate=1853 / ratetol=1.0 / qcomp=0.60 / qpmin=0 / qpmax=69 / qpstep=4 / cplxblur=20.0 / qblur=0.5 / vbv_maxrate=50000 / vbv_bufsize=62500 / nal_hrd=none / filler=0 / ip_ratio=1.40 / pb_ratio=1.30 / aq=3:0.90 Language : English Default : Yes Forced : No Audio ID : 2 Format : AC-3 Format/Info : Audio Coding 3 Commercial name : Dolby Digital Codec ID : A_AC3 Duration : 1 h 32 min Bit rate mode : Constant Bit rate : 384 kb/s Channel(s) : 6 channels Channel layout : L R C LFE Ls Rs Sampling rate : 48.0 kHz Frame rate : 31.250 FPS (1536 SPF) Compression mode : Lossy Stream size : 255 MiB (17%) Title : DUB Language : Russian Service kind : Complete Main Default : Yes Forced : Yes Text ID : 3 Format : UTF-8 Codec ID : S_TEXT/UTF8 Codec ID/Info : UTF-8 Plain Text Duration : 1 h 25 min Bit rate : 32 b/s Count of elements : 784 Stream size : 20.2 KiB (0%) Title : Full Language : English Default : No Forced : No Menu 00:00:00.000 : en:Chapter 01 00:07:24.360 : en:Chapter 02 00:14:41.088 : en:Chapter 03 00:23:29.825 : en:Chapter 04 00:30:50.598 : en:Chapter 05 00:35:39.011 : en:Chapter 06 00:41:56.514 : en:Chapter 07 00:52:38.071 : en:Chapter 08 00:57:07.549 : en:Chapter 09 01:04:43.045 : en:Chapter 10 01:12:02.318 : en:Chapter 11 01:26:52.123 : en:Chapter 12
[+] Скриншоты

Всего файлов в раздаче: 1 
The.Power.2021.DUB.HDRip.x264.mkv1.45 GB

Похожие раздачи по запросу - Проклятье
2024-05-12 magnet Сердце дракона 3: Проклятье чародея / Dragonheart 3: The Sorcerer's Curse (2015) BDRemux 1080p от селезень | D | Лицензия 26.59 GB ↑ 0 ↓ 0

Кто качает (только для создателя раздачи и модераторов): Локальные пиры отсутствуют

Комментарии


Зарегистрируйтесь чтобы добавить комментарий
Торрент клиент
byTorrent - программа для загрузки торрент-файлов.

Скачать byTorrent.exe (1,5 МБ)

Скачать byTorrent.zip (0,6 МБ)

Поддержи torrent.by
российских рублей
(300 российских рублей это 4$)

Обратная связь rss

End game ©