↑↓torrent.by
Поиск
Логин:  Регистрация
Пароль:

Sebastian Bach (ex-Skid Row) - Child Within The Man (2024) FLAC

download Скачать торрент-файл   magnet Магнитная ссылка Размер: 361.97 MB Добавлен: 2024-05-10 17:00
Пиры будут получены из сети DHT
Последний сидер был замечен 2024-06-15 11:01
Sebastian Bach - Child Within The Man (2024) Жанр: Hard-Rock, Heavy-Metal Издание: Reigning Phoenix Music Источник: ссылка Продолжительность: 00:47:30 Кодек: FLAC Битрейт: Lossless|WEB-DL Тип рипа: tracks Треклист: 01. Everybody Bleeds (4:26) 02. Freedom (3:09) 03. (Hold On) To The Dream (5:02) 04. What Do I Got To Lose? (4:49) 05. Hard Darkness (4:22) 06. Future Of Youth (3:45) 07. Vendetta (4:01) 08. F. U. (4:39) 09. Crucify Me (4:23) 10. About To Break (4:11) 11. To Live Again (4:49)
[+] Отчёт DR: -------------------------------------------------------------------------------- Analyzed: Sebastian Bach / Child Within The Man -------------------------------------------------------------------------------- DR Peak RMS Duration Track -------------------------------------------------------------------------------- DR6 0.00 dB -6.46 dB 4:26 01-Everybody Bleeds DR6 0.00 dB -7.00 dB 3:09 02-Freedom DR6 0.00 dB -7.24 dB 5:02 03-(Hold On) To The Dream DR6 0.00 dB -7.11 dB 4:49 04-What Do I Got To Lose? DR6 0.00 dB -6.68 dB 4:22 05-Hard Darkness DR6 0.00 dB -6.66 dB 3:45 06-Future Of Youth DR6 0.00 dB -6.72 dB 4:01 07-Vendetta DR6 0.00 dB -6.17 dB 4:39 08-F. U. DR6 0.00 dB -6.64 dB 4:23 09-Crucify Me DR6 0.00 dB -6.99 dB 4:11 10-About To Break DR6 0.00 dB -7.13 dB 4:49 11-To Live Again -------------------------------------------------------------------------------- Number of tracks: 11 Official DR value: DR6 Samplerate: 44100 Hz Channels: 2 Bits per sample: 16 Bitrate: 1042 kbps Codec: FLAC ================================================================================
[+] Отчёт auCDtect Task manager: Cue Corrector v. 10.2.3 / b. 2128 (Apr. 29, 2024) ———————————————————————————————————————————————————————————————————————— Sebastian Bach / Child Within The Man Folder: Sebastian Bach - 2024 - Child Within The Man Audio files: 01 Everybody Bleeds.flac 02 Freedom.flac 03 (Hold On) To The Dream.flac 04 What Do I Got To Lose-.flac 05 Hard Darkness.flac 06 Future Of Youth.flac 07 Vendetta.flac 08 F. U.flac 09 Crucify Me.flac 10 About To Break.flac 11 To Live Again.flac Accuracy: -m3 File 01 Everybody Bleeds - 100% CDDA File 02 Freedom - 100% CDDA File 03 (Hold On) To The Dream - 99% CDDA File 04 What Do I Got To Lose- - 100% CDDA File 05 Hard Darkness - 100% CDDA File 06 Future Of Youth - 100% CDDA File 07 Vendetta - 99% CDDA File 08 F. U - 100% CDDA File 09 Crucify Me - 99% CDDA File 10 About To Break - 100% CDDA File 11 To Live Again - 100% CDDA ————— Summary: ————— These tracks looks like CDDA with probability 100%. ———————————————————————————————————————————————————————————————————————— ANALYZER: auCDtect: CD records authenticity detector, version 0.8.2 Copyright (c) 2004 Oleg Berngardt. All rights reserved. Copyright (c) 2004 Alexander Djourik. All rights reserved. === 24B73DD7CF7D52A6D3596823782AB503E3590316A1C4D22E80831EEB1C0D08A2 ===

Всего файлов в раздаче: 12 
01 Everybody Bleeds.flac34.01 MB
02 Freedom.flac23.90 MB
03 (Hold On) To The Dream.flac37.63 MB
04 What Do I Got To Lose-.flac35.82 MB
05 Hard Darkness.flac32.76 MB
06 Future Of Youth.flac28.90 MB
07 Vendetta.flac30.48 MB
08 F. U.flac36.29 MB
09 Crucify Me.flac33.96 MB
10 About To Break.flac31.32 MB
Показать все файлы

Похожие раздачи по запросу - Sebastian
2024-06-14 magnet Sebastian Bach - Child Within The Man (2024) MP3 110.83 MB ↑ 0 ↓ 0
2023-11-07 magnet Терапия Себастьяна Фитцека / Sebastian Fitzek's Therapy [S01] (2023) WEB-DLRip 1080p | ViruseProject 9.69 GB ↑ 1 ↓ 0

Комментарии


Зарегистрируйтесь чтобы добавить комментарий
Торрент клиент
byTorrent - программа для загрузки торрент-файлов.

Скачать byTorrent.exe (1,5 МБ)

Скачать byTorrent.zip (0,6 МБ)

Поддержи torrent.by
российских рублей
(300 российских рублей это 4$)

Обратная связь rss

End game ©