↑↓torrent.by
Поиск
Логин:  Регистрация
Пароль:

Большая белая обуза / The Big White (2004) BDRip-AVC | D

download Скачать торрент-файл   magnet Магнитная ссылка Размер: 2.18 GB Добавлен: 2024-05-10 17:00
Пиры будут получены из сети DHT
Последний сидер был замечен сегодня в 09:49
Год выпуска: 2004 Страна: США, Германия Жанр: драма, комедия, криминал Продолжительность: 01:44:45 Перевод: дублированный Субтитры: русские Режиссёр: Марк Майлод В ролях: Робин Уильямс, Холли Хантер, Джованни Рибизи, Тим Блэйк Нельсон, В. Эрл Браун, Вуди Харрельсон, Элисон Ломан, Билли Мерэсти, Марина Стефенсен Керр, Ральф Дж. Олдермен Описание: Аляска — край снежных бурь, сурового северного климата и дом Пола Барнса, агента бюро туристических путешествий. В последнее время дела у него идут хуже некуда: деньги закончились, с женой проблемы, а клиенты не торопятся проводить свой отпуск на Аляске, наслаждаясь прелестями северной жизни. Единственная надежда для Пола хоть как-то поправить свои дела — получить страховку в миллион долларов за пропавшего пять лет назад родного брата. Но без доказательств его смерти, то есть трупа, страховая фирма не выплатит Полу ни цента. И вот однажды Полу улыбается удача: он находит на улице замерзшее тело. Но, во-первых, его не так-то просто выдать за своего погибшего брата, а во-вторых, это тело ищет ещё кое-кто. Качество видео: BDRip-AVC (Большая белая обуза 2005 BDRemux 1080p) Формат видео: MKV Видео: x264, 1024x576 (16:9) 23.976 fps, ~2085 kbps, 0,147 bit/pixel Аудио 1: 48 kHz, AC3 Dolby Digital, 3/2 (L,C,R,l,r) + LFE ch, ~448 kbps Аудио 2: 48 kHz, AC3 Dolby Digital, 3/2 (L,C,R,l,r) + LFE ch, ~448 kbps Формат субтитров: softsub (SRT)
[+] M/IGeneral Unique ID : 237119023979554863375760866826458593805 (0xB263767E6D183FF7BCE26A38034D7A0D) Format : Matroska Format version : Version 4 / Version 2 File size : 2.18 GiB Duration : 1h 44mn Overall bit rate : 2 982 Kbps Encoded date : UTC 2017-02-08 12:26:09 Writing application : mkvmerge v9.8.0 ('Kuglblids') 64bit Writing library : libebml v1.3.4 + libmatroska v1.4.5 Video #1 ID : 1 Format : AVC Format/Info : Advanced Video Codec Format profile : High@L4.1 Format settings, CABAC : Yes Format settings, ReFrames : 10 frames Codec ID : V_MPEG4/ISO/AVC Duration : 1h 44mn Bit rate : 2 085 Kbps Width : 1 024 pixels Height : 576 pixels Display aspect ratio : 16:9 Frame rate mode : Constant Frame rate : 23.976 (24000/1001) fps Color space : YUV Chroma subsampling : 4:2:0 Bit depth : 8 bits Scan type : Progressive Bits/(Pixel*Frame) : 0.147 Stream size : 1.52 GiB (70%) Writing library : x264 core 148 r2638 7599210 Encoding settings : cabac=1 / ref=10 / deblock=1:-3:-2 / analyse=0x3:0x133 / me=umh / subme=10 / psy=1 / psy_rd=1.00:0.00 / mixed_ref=1 / me_range=32 / chroma_me=1 / trellis=2 / 8x8dct=1 / cqm=0 / deadzone=21,11 / fast_pskip=1 / chroma_qp_offset=-2 / threads=6 / lookahead_threads=1 / sliced_threads=0 / nr=0 / decimate=1 / interlaced=0 / bluray_compat=0 / constrained_intra=0 / bframes=11 / b_pyramid=2 / b_adapt=2 / b_bias=0 / direct=1 / weightb=1 / open_gop=0 / weightp=2 / keyint=250 / keyint_min=23 / scenecut=40 / intra_refresh=0 / rc_lookahead=60 / rc=2pass / mbtree=1 / bitrate=2085 / ratetol=1.0 / qcomp=0.60 / qpmin=0 / qpmax=69 / qpstep=4 / cplxblur=20.0 / qblur=0.5 / ip_ratio=1.40 / aq=3:1.00 Language : English Default : Yes Forced : No Audio #2 ID : 2 Format : AC-3 Format/Info : Audio Coding 3 Mode extension : CM (complete main) Format settings, Endianness : Big Codec ID : A_AC3 Duration : 1h 44mn Bit rate mode : Constant Bit rate : 448 Kbps Channel(s) : 6 channels Channel positions : Front: L C R, Side: L R, LFE Sampling rate : 48.0 KHz Frame rate : 31.250 fps (1536 spf) Compression mode : Lossy Stream size : 336 MiB (15%) Language : Russian Default : Yes Forced : No Audio #3 ID : 3 Format : AC-3 Format/Info : Audio Coding 3 Mode extension : CM (complete main) Format settings, Endianness : Big Codec ID : A_AC3 Duration : 1h 44mn Bit rate mode : Constant Bit rate : 448 Kbps Channel(s) : 6 channels Channel positions : Front: L C R, Side: L R, LFE Sampling rate : 48.0 KHz Frame rate : 31.250 fps (1536 spf) Compression mode : Lossy Stream size : 336 MiB (15%) Language : English Default : No Forced : No Text #4 ID : 4 Format : UTF-8 Codec ID : S_TEXT/UTF8 Codec ID/Info : UTF-8 Plain Text Duration : 1h 38mn Bit rate : 78 bps Count of elements : 943 Stream size : 56.8 KiB (0%) Language : Russian Default : No Forced : No
[+] Скриншоты

Всего файлов в раздаче: 1 
The.Big.White.2005.BDRip-AVC.OIV.mkv2.18 GB

Похожие раздачи по запросу - Большая
2024-05-11 magnet Владимир Жабцев - Большая энциклопедия. Электричество, отопление, водопровод и сантехника (2023) PDF 37.96 MB ↑ 0 ↓ 0
2024-03-21 magnet Большая гонка. Ауди против Лянчи / Race for Glory: Audi vs. Lancia (2024) WEB-DLRip-AVC от DoMiNo & селезень | D, P 1К1.95 GB ↑ 1 ↓ 0
2024-03-21 magnet Большая гонка. Ауди против Лянчи / Race for Glory: Audi vs. Lancia (2024) WEB-DL 1080p от селезень | D, P 7.78 GB ↑ 1 ↓ 0
2024-01-25 magnet Коллектив авторов - Большая энциклопедия домашней кухни для начинающих (2018) PDF 63.85 MB ↑ 0 ↓ 0
2024-01-25 magnet Ярощук А.И., Романова Л.В. - Все породы кошек. Большая иллюстрированная энциклопедия (2022) PDF 28.37 MB ↑ 0 ↓ 0
2024-01-21 magnet Матанцев А., Матанцева С. - Птицы России. Большая иллюстрированная энциклопедия (2020) PDF 51.00 MB ↑ 0 ↓ 0
2023-11-30 magnet Большая битва / Il grande attacco / The Biggest Battle (1978) BDRip-AVC | A 1.46 GB ↑ 1 ↓ 0

Кто качает (только для создателя раздачи и модераторов): Локальные пиры отсутствуют

Комментарии


Зарегистрируйтесь чтобы добавить комментарий
Торрент клиент
byTorrent - программа для загрузки торрент-файлов.

Скачать byTorrent.exe (1,5 МБ)

Скачать byTorrent.zip (0,6 МБ)

Поддержи torrent.by
российских рублей
(300 российских рублей это 4$)

Обратная связь rss

End game ©