↑↓torrent.by
Поиск
Логин:  Регистрация
Пароль:

Черепахи – и нет им конца / Turtles All the Way Down (2024) WEB-DLRip от New-Team | P | TVShows

download Скачать торрент-файл   magnet Магнитная ссылка Размер: 1.46 GB Добавлен: 2024-05-11 05:00
Пиры будут получены из сети DHT
Последний сидер был замечен 2024-05-14 14:46
Черепахи – и нет им конца / Turtles All the Way Down Год выпуска: 2024 Выпущено: США / New Line Cinema, Temple Hill Entertainment Жанр: драма, мелодрама Режиссер: Ханна Маркс / Hannah Marks В ролях: Изабела Монер, Кри Чиккино, Феликс Маллард, Ханна Маркс, Джей Смит-Кэмерон, Джуди Рейес, Пурна Джаганнатан, Малик Джонсон, Майлз Экхардт, Джейсон Кинтц, Кори Хардин, Тим Гуч, Гэбриел А. Бирн, Чак Томсон О фильме: История 17-летней Азы Холмс, которая старается быть хорошей дочерью, другом и ученицей, одновременно борясь с постоянным потоком неконтролируемых навязчивых мыслей. Когда Аза воссоединяется со своей детской любовью Дэвисом, девушка задумывается о своем потенциале любви, счастья, дружбы и надежды. Продолжительность: 01:51:18 Перевод: Профессиональный (многоголосый, закадровый) | TVShows (Thx. SunOfABeach) Субтитры: нет. Раздача от: Автор релиза: JNS82. Формат: AVI Качество: WEB-DLRip Видео: 704x384 (1.85:1), 23.976 fps, XviD MPEG-4 ~ 1489 kbps avg, 0.230 bit/pixel, build 74 Аудио: 48 kHz, AC3 Dolby Digital, 3/2 (L,C,R,l,r) + LFE ch, ~ 384 kbps | RUS |
[+] MediaInfoОбщее Полное имя : D:TorrentsTurtles.All.the.Way.Down.2024.WEB-DLRip_от New-Team_by_JNS82.avi Формат : AVI Формат/Информация : Audio Video Interleave Размер файла : 1,46 Гбайт Продолжительность : 1 ч. 51 м. Общий поток : 1 882 Кбит/сек Программа кодирования : VirtualDubMod 1.5.10.2 (build 2540/release) Библиотека кодирования : VirtualDubMod build 2540/release Видео Идентификатор : 0 Формат : MPEG-4 Visual Профиль формата : Advanced Simple@L5 Настройки формата : BVOP1 / Custom Matrix Параметр BVOP формата : 1 Параметр QPel формата : Нет Параметр GMC формата : Без точки перехода Параметр матрицы формата : Выборочная Идентификатор кодека : XVID Идентификатор кодека/Подсказка : XviD Продолжительность : 1 ч. 51 м. Битрейт : 1 489 Кбит/сек Ширина : 704 пикселя Высота : 384 пикселя Соотношение сторон : 1,85:1 Частота кадров : 23,976 (24000/1001) кадра/сек Цветовое пространство : YUV Субдискретизация насыщенности : 4:2:0 Битовая глубина : 8 бит Тип развёртки : Прогрессивная Метод сжатия : С потерями Бит/(Пиксели*Кадры) : 0.230 Размер потока : 1,16 Гбайт (79%) Библиотека кодирования : XviD 74 Аудио Идентификатор : 1 Формат : AC-3 Формат/Информация : Audio Coding 3 Коммерческое название : Dolby Digital Идентификатор кодека : 2000 Продолжительность : 1 ч. 51 м. Вид битрейта : Постоянный Битрейт : 384 Кбит/сек Каналы : 6 каналов Channel layout : L R C LFE Ls Rs Частота : 48,0 КГц Частота кадров : 31,250 кадров/сек (1536 SPF) Метод сжатия : С потерями Размер потока : 306 Мбайт (20%) Выравнивание : Разделение по промежуткам Продолжительность промежутка : 42 мс. (1,00 видеокадр) Время предзагрузки промежутка : 500 мс. Service kind : Complete Main

Всего файлов в раздаче: 1 
Turtles.All.the.Way.Down.2024.WEB-DLRip_от New-Team_by_JNS82.avi1.46 GB

Похожие раздачи по запросу - Черепахи
2024-05-11 magnet Черепахи – и нет им конца / Turtles All the Way Down (2024) WEB-DL 720p от селезень | P | TVShows 3.87 GB ↑ 0 ↓ 0
2024-05-11 magnet Черепахи – и нет им конца / Turtles All the Way Down (2024) WEB-DL 1080p от New-Team | P | TVShows 8.33 GB ↑ 0 ↓ 0

Кто качает (только для создателя раздачи и модераторов): Локальные пиры отсутствуют

Комментарии


Зарегистрируйтесь чтобы добавить комментарий
Торрент клиент
byTorrent - программа для загрузки торрент-файлов.

Скачать byTorrent.exe (1,5 МБ)

Скачать byTorrent.zip (0,6 МБ)

Поддержи torrent.by
российских рублей
(300 российских рублей это 4$)

Обратная связь rss

End game ©