↑↓torrent.by
Поиск
Логин:  Регистрация
Пароль:

Хитмен. Последнее дело / Нокс уходит / Knox Goes Away (2023) WEB-DL 1080p от селезень | D | Кинопоиск HD

download Скачать торрент-файл   magnet Магнитная ссылка Размер: 3.60 GB Раздают: 0 Качают: 3 Добавлен: 2024-05-11 05:00
Пиры будут получены из сети DHT
Последний сидер был замечен 2024-05-13 16:39
Информация о фильме Название: Хитмен. Последнее дело / Нокс уходит Оригинальное название: Knox Goes Away Год выхода: 2023 Жанр: триллер Режиссер: Майкл Китон В ролях: Майкл Китон, Рэй Маккиннон, Cassie Moronez, Пол Перри, Йоанна Кулиг, Эдвин Гарсиа II, Николь Реддингер, Сьюзи Накамура, Джон Хугенэккер, Деннис Дуган О фильме: Джон Нокс - профессиональный киллер. Его деяния лежат на душе тяжким грузом, и Нокс планирует уйти в отставку. Однако появление на пороге сына, Майлза - шокированного, в крови, умоляющего помочь ему - меняет все планы. Заручившись поддержкой старого друга Хавьера, Нокс должен разработать сложную схему и запутать преследующую их полицию, чтобы искупить вину и спасти сына, с которым не общался много лет. Ситуацию осложняет то, что у Джона диагностировали быстро развивающуюся форму деменции, и теперь счет времени идет на часы. Страна: США Студия: Brookstreet Pictures, Sugar23, Three Point Capital Продолжительность: 01:54:29 Перевод: Дублированный | Пифагор (Кинопоиск HD) Качество: WEB-DL 1080p Видео: MPEG-4 AVC, 1920x1024, 3152 Kbit/s, 24.000 fps Аудио #01: 48 kHz, AC3, 5.1, 448 Kbps | Дублированный | Пифагор (Кинопоиск HD) | RUS | Аудио #02: 48 kHz, E-AC3, 5.1, 448 Kbps | Дублированный | Пифагор (Кинопоиск HD) | RUS | Аудио #03: 48 kHz, E-AC3, 5.1, 448 Kbps | Оригинал | ENG | Субтитры: Русские (Full)
[+] MIGeneral Unique ID : 191660314332110493664078540580686638725 (0x90306F10F18CFCC64DED216867C7AE85) Complete name : H:VideoHKnox.Goes.Away.2023.WEB-DL.1080p.seleZen.mkv Format : Matroska Format version : Version 4 File size : 3.60 GiB Duration : 1 h 54 min Overall bit rate : 4 499 kb/s Frame rate : 24.000 FPS Movie name : Knox Goes Away 2023 from seleZen Encoded date : 2024-05-10 21:19:38 UTC Writing application : mkvmerge v80.0 ('Roundabout') 64-bit Writing library : libebml v1.4.4 + libmatroska v1.7.1 Video ID : 1 Format : AVC Format/Info : Advanced Video Codec Format profile : Progressive High@L4 Format settings : CABAC / 4 Ref Frames Format settings, CABAC : Yes Format settings, Reference : 4 frames Codec ID : V_MPEG4/ISO/AVC Duration : 1 h 54 min Bit rate : 3 152 kb/s Width : 1 920 pixels Height : 1 024 pixels Display aspect ratio : 1.85:1 Frame rate mode : Constant Frame rate : 24.000 FPS Color space : YUV Chroma subsampling : 4:2:0 Bit depth : 8 bits Scan type : Progressive Bits/(Pixel*Frame) : 0.067 Stream size : 2.52 GiB (70%) Writing library : x264 core 157 Encoding settings : cabac=1 / ref=4 / deblock=1:0:0 / analyse=0x3:0x133 / me=umh / subme=10 / psy=1 / psy_rd=1.00:0.00 / mixed_ref=1 / me_range=24 / chroma_me=1 / trellis=2 / 8x8dct=1 / cqm=0 / deadzone=21,11 / fast_pskip=1 / chroma_qp_offset=-2 / threads=32 / lookahead_threads=5 / sliced_threads=0 / nr=0 / decimate=1 / interlaced=0 / bluray_compat=0 / stitchable=1 / constrained_intra=0 / bframes=8 / b_pyramid=2 / b_adapt=2 / b_bias=0 / direct=3 / weightb=1 / open_gop=0 / weightp=2 / keyint=250 / keyint_min=24 / scenecut=40 / intra_refresh=0 / rc_lookahead=96 / rc=crf / mbtree=1 / crf=16.0 / qcomp=0.60 / qpmin=0 / qpmax=69 / qpstep=4 / ip_ratio=1.40 / aq=1:1.00 Language : English Default : Yes Forced : No Audio #1 ID : 2 Format : AC-3 Format/Info : Audio Coding 3 Commercial name : Dolby Digital Codec ID : A_AC3 Duration : 1 h 54 min Bit rate mode : Constant Bit rate : 448 kb/s Channel(s) : 6 channels Channel layout : L R C LFE Ls Rs Sampling rate : 48.0 kHz Frame rate : 31.250 FPS (1536 SPF) Compression mode : Lossy Stream size : 367 MiB (10%) Title : Dub (ПИФАГОР) Language : Russian Service kind : Complete Main Default : Yes Forced : No Audio #2 ID : 3 Format : E-AC-3 Format/Info : Enhanced AC-3 Commercial name : Dolby Digital Plus Codec ID : A_EAC3 Duration : 1 h 54 min Bit rate mode : Constant Bit rate : 448 kb/s Channel(s) : 6 channels Channel layout : L R C LFE Ls Rs Sampling rate : 48.0 kHz Frame rate : 31.250 FPS (1536 SPF) Bit depth : 32 bits Compression mode : Lossy Stream size : 367 MiB (10%) Title : Dub (ПИФАГОР) Language : Russian Service kind : Complete Main Default : No Forced : No Audio #3 ID : 4 Format : E-AC-3 Format/Info : Enhanced AC-3 Commercial name : Dolby Digital Plus Codec ID : A_EAC3 Duration : 1 h 54 min Bit rate mode : Constant Bit rate : 448 kb/s Channel(s) : 6 channels Channel layout : L R C LFE Ls Rs Sampling rate : 48.0 kHz Frame rate : 31.250 FPS (1536 SPF) Bit depth : 32 bits Compression mode : Lossy Stream size : 367 MiB (10%) Title : Original Language : English Service kind : Complete Main Default : No Forced : No Text ID : 5 Format : UTF-8 Codec ID : S_TEXT/UTF8 Codec ID/Info : UTF-8 Plain Text Duration : 1 h 45 min Bit rate : 79 b/s Frame rate : 0.223 FPS Count of elements : 1406 Stream size : 61.1 KiB (0%) Title : Full (KP) Language : Russian Default : No Forced : No
Релиз: Присоединяйся к: Кликай на баннеры.

Всего файлов в раздаче: 1 
Knox.Goes.Away.2023.WEB-DL.1080p.seleZen.mkv3.60 GB

Похожие раздачи по запросу - Хитмен
2024-05-07 magnet Хитмен. Последнее дело / Нокс уходит / Knox Goes Away (2023) WEB-DL 1080p | D | Пифагор 7.13 GB ↑ 2 ↓ 0
2024-05-07 magnet Хитмен. Последнее дело / Нокс уходит / Knox Goes Away (2023) WEB-DLRip от MegaPeer | D | Пифагор 1.46 GB ↑ 0 ↓ 0
2024-05-07 magnet Хитмен. Последнее дело / Нокс уходит / Knox Goes Away (2023) WEB-DL 2160р от Scarabey | 4K | SDR | D | Пифагор, Soundmasters 12.67 GB ↑ 0 ↓ 4
2024-05-07 magnet Хитмен. Последнее дело / Нокс уходит / Knox Goes Away (2023) WEB-DLRip 720p от DoMiNo & селезень | D, P | Пифагор, Soundmasters 3.34 GB ↑ 0 ↓ 0
2024-05-07 magnet Хитмен. Последнее дело / Нокс уходит / Knox Goes Away (2023) WEB-DLRip-AVC от ExKinoRay | D | Пифагор 745.89 MB ↑ 0 ↓ 0
2024-05-05 magnet Хитмен. Последнее дело / Knox Goes Away (2023) WEB-DLRip от MegaPeer | D | Soundmasters 1.46 GB ↑ 1 ↓ 0
2024-05-04 magnet Хитмен. Последнее дело / Knox Goes Away (2023) WEB-DL 1080p от New-Team | D | Soundmasters 6.98 GB ↑ 0 ↓ 0

Кто качает (только для создателя раздачи и модераторов):
ПользовательIP:портОтдалПринялОстатокСидируетТоррент клиентОбновился
1 Аноним 165.46.78.37:43283 2.45 MB 1.03 GB 3.52 GB нет -qB4390- 09:24 2024-05-18
2 Аноним 178.158.113.188:44467 1.08 MB 3.45 GB 3.52 GB нет -qB4390- 09:42 2024-05-18
3 Аноним 254.249.185.93:33319 5.25 MB 2.43 GB 3.52 GB нет -qB4390- 09:51 2024-05-18

Комментарии


Зарегистрируйтесь чтобы добавить комментарий
Торрент клиент
byTorrent - программа для загрузки торрент-файлов.

Скачать byTorrent.exe (1,5 МБ)

Скачать byTorrent.zip (0,6 МБ)

Поддержи torrent.by
российских рублей
(300 российских рублей это 4$)

Обратная связь rss

End game ©