↑↓torrent.by
Поиск
Логин:  Регистрация
Пароль:

Кин-дза-дза! (1986) BDRemux 1080p | USA Transfer

download Скачать торрент-файл   magnet Магнитная ссылка Размер: 37.39 GB Добавлен: 2024-05-11 05:00
Пиры будут получены из сети DHT
Последний сидер был замечен 2024-05-19 23:18
Информация о фильме Название: Кин-дза-дза! Год выхода: 1986 Производство: СССР / Мосфильм Жанр:фантастика, драма, комедия Режиссер: Георгий Данелия Актеры: Станислав Любшин, Евгений Леонов, Юрий Яковлев, Леван Габриадзе, Ольга Машная, Ирина Шмелева, Лев Перфилов, Георгий Данелия, Александра Дорохина, Галина Данелия-Юркова Описание: Прораб Владимир Николаевич Машков и не подозревал, что обычный путь до универсама за хлебом и макаронами обернется межгалактическими путешествиями. А все эта встреча со странным босоногим человеком с каким-то маленьким устройством — «машинкой перемещения», как тот ее назвал. Короче, нажал на кнопку и оказался вместе со случайным попутчиком, студентом в кроличьей шапке, в пустыне, и не в каких-нибудь Каракумах, а на планете-пустыне Плюк в тентуре, галактика Кин-дза-дза в спирали. Продолжительность: 02:12:51 Качество видео: BDRemux 1080p Перевод: Не требуется (Русский) Субтитры: Русские, английские Видео: AVC/H.264, 1920x1080, ~34,9 Mbps, 24 fps Аудио 1: DTS-HD MA, 6 ch, 3594 Kbps - Русский (BD RUS) Аудио 2: AC3, 6 ch, 640 Kbps - Русский (BD RUS) Аудио 3: LPCM, 1 ch, 1152 Kbps - Русский (BD USA)
[+] MediaInfo: Общее Уникальный идентификатор : 168605749777922760276657554554244054594 (0x7ED849465310A8A0D374DFB0BEF83E42) Полное имя : Kin-dza-dza.1986.Remux.W.mkv Формат : Matroska Версия формата : Version 4 Размер файла : 37,4 Гбайт Продолжительность : 2 ч. 12 мин. Режим общего битрейта : Переменный Общий битрейт : 40,3 Мбит/сек Частота кадров : 24,000 кадра/сек Название фильма : Kin-dza-dza.1986.Remux.W Дата кодирования : 2024-05-10 10:08:16 UTC Программа кодирования : mkvmerge v83.0 ('Circle Of Friends') 64-bit Библиотека кодирования : libebml v1.4.5 + libmatroska v1.7.1 Видео Идентификатор : 1 Идентификатор в исходном носителе информ : 4113 (0x1011) Формат : AVC Формат/Информация : Advanced Video Codec Профиль формата : High@L4.1 Настройки формата : CABAC / 3 Ref Frames Параметр CABAC формата : Да Параметр RefFrames формата : 3 кадра Параметр формата, количество фрагментов : 4 фрагмента на кадр Идентификатор кодека : V_MPEG4/ISO/AVC Продолжительность : 2 ч. 12 мин. Вид битрейта : Переменный Битрейт : 34,9 Мбит/сек Максимальный битрейт : 38,0 Мбит/сек Ширина : 1 920 пикселей Высота : 1 080 пикселей Соотношение сторон дисплея : 16:9 Режим частоты кадров : Постоянный Частота кадров : 24,000 кадра/сек Цветовое пространство : YUV Цветовая субдискретизация : 4:2:0 Битовая глубина : 8 бит Тип развёртки : Прогрессивная Бит/(Пиксели*Кадры) : 0.701 Размер потока : 32,4 Гбайт (87%) Язык : Русский По умолчанию : Да Принудительно : Нет Цветовой диапазон : Limited Основные цвета : BT.709 Характеристики трансфера : BT.709 Коэффициенты матрицы : BT.709 Носитель оригинала : Blu-ray Аудио #1 Идентификатор : 2 Формат : DTS XLL Формат/Информация : Digital Theater Systems Коммерческое название : DTS-HD Master Audio Идентификатор кодека : A_DTS Продолжительность : 2 ч. 12 мин. Вид битрейта : Переменный Битрейт : 3 594 Кбит/сек Канал(-ы) : 6 каналов Расположение каналов : C L R Ls Rs LFE Частота дискретизации : 48,0 КГц Частота кадров : 93,750 кадра/сек (512 SPF) Битовая глубина : 24 бита Метод сжатия : Без потерь Размер потока : 3,34 Гбайт (9%) Заголовок : RUS BD Язык : Русский По умолчанию : Да Принудительно : Нет Аудио #2 Идентификатор : 3 Формат : AC-3 Формат/Информация : Audio Coding 3 Коммерческое название : Dolby Digital Идентификатор кодека : A_AC3 Продолжительность : 2 ч. 12 мин. Вид битрейта : Постоянный Битрейт : 640 Кбит/сек Канал(-ы) : 6 каналов Расположение каналов : L R C LFE Ls Rs Частота дискретизации : 48,0 КГц Частота кадров : 31,250 кадров/сек (1536 SPF) Метод сжатия : С потерями Размер потока : 608 Мбайт (2%) Заголовок : RUS BD Язык : Русский Вид сервиса : Complete Main По умолчанию : Нет Принудительно : Нет Нормализация звука речи : -31 dB cmixlev : -3.0 dB surmixlev : -3 dB dialnorm_Average : -31 dB dialnorm_Minimum : -31 dB dialnorm_Maximum : -31 dB Аудио #3 Идентификатор : 4 Идентификатор в исходном носителе информ : 4352 (0x1100) Формат : PCM Настройки формата : Little / Signed Идентификатор кодека : A_PCM/INT/LIT Продолжительность : 2 ч. 12 мин. Вид битрейта : Постоянный Битрейт : 1 152 Кбит/сек Канал(-ы) : 1 канал Частота дискретизации : 48,0 КГц Частота кадров : 200,000 кадров/сек (240 SPF) Битовая глубина : 24 бита Размер потока : 1,07 Гбайт (3%) Заголовок : USA BD Язык : Русский По умолчанию : Нет Принудительно : Нет Носитель оригинала : Blu-ray Текст #1 Идентификатор : 5 Формат : UTF-8 Идентификатор кодека : S_TEXT/UTF8 Идентификатор кодека/Информация : UTF-8 Plain Text Продолжительность : 2 ч. 10 мин. Битрейт : 57 бит/сек Частота кадров : 0,117 кадр/сек Число элементов : 913 Размер потока : 54,6 КиБ (0%) Язык : Русский По умолчанию : Нет Принудительно : Нет Текст #2 Идентификатор : 6 Формат : UTF-8 Идентификатор кодека : S_TEXT/UTF8 Идентификатор кодека/Информация : UTF-8 Plain Text Продолжительность : 2 ч. 12 мин. Битрейт : 40 бит/сек Частота кадров : 0,171 кадр/сек Число элементов : 1362 Размер потока : 39,6 КиБ (0%) Заголовок : USA BD Язык : Английский По умолчанию : Нет Принудительно : Нет Меню 00:00:00.000 : en:Глава 01 00:10:02.541 : en:Глава 02 00:21:46.833 : en:Глава 03 00:32:20.958 : en:Глава 04 00:42:32.500 : en:Глава 05 00:55:43.041 : en:Глава 06 01:06:16.458 : en:Глава 07 01:18:29.000 : en:Глава 08 01:26:22.875 : en:Глава 09 01:36:45.250 : en:Глава 10 01:50:46.458 : en:Глава 11 02:01:11.291 : en:Глава 12
[+] Дополнительная информация USA Transfer. т.к здесь звук был только LPCM моно, шестиканальный взят с русского блюра и синхронизирован с этим трансфером. русские субтитры найдены в сети и также подогнаны, английские с этого трансфера
Скриншоты:

Всего файлов в раздаче: 1 
Kin-dza-dza.1986.Remux.W.mkv37.39 GB

Похожие раздачи по запросу - Кин-дза-дза!
2024-05-11 magnet Кин-дза-дза! (1986) BDRip-AVC от DoMiNo | JPN Transfer 2.89 GB ↑ 1 ↓ 0

Кто качает (только для создателя раздачи и модераторов): Локальные пиры отсутствуют

Комментарии


Зарегистрируйтесь чтобы добавить комментарий
Торрент клиент
byTorrent - программа для загрузки торрент-файлов.

Скачать byTorrent.exe (1,5 МБ)

Скачать byTorrent.zip (0,6 МБ)

Поддержи torrent.by
российских рублей
(300 российских рублей это 4$)

Обратная связь rss

End game ©