↑↓torrent.by
Поиск
Логин:  Регистрация
Пароль:

Мысль о тебе / The Idea of You (2024) WEB-DL 1080p от New-Team | P | TVShows

download Скачать торрент-файл   magnet Магнитная ссылка Размер: 8.13 GB Раздают: 0 Качают: 5 Добавлен: 2024-05-11 05:00
Пиры будут получены из сети DHT
Последний сидер был замечен сегодня в 06:37
Мысль о тебе / The Idea of You Год выпуска: 2024 Выпущено: США / Amazon Studios, I'll Have Another, Somewhere Pictures, Welle Entertainment Жанр: драма, мелодрама Режиссер: Майкл Шоуолтер / Michael Showalter В ролях: Энн Хэтэуэй, Николас Голицын, Элла Рубин, Энни Мумоло, Рейд Скотт, Перри Мэттфелд, Джордан Холл, Матильда Джанопулос, Мэг Миллидж, Чич Манохар О фильме: Накануне своего 40-летия лос-анджелесская галеристка Солен везет 16-летнюю дочь Иззи на фестиваль Coachella. Бывший муж купил дочке и её друзьям билеты на фан-встречу с бойз-бендом August Moon, по которому те сохли в седьмом классе. Солен случайно знакомится с одним из участников группы, 24-летним англичанином Хейсом, и вскоре он появляется на пороге её галереи в окружении телохранителей и папарацци. Продолжительность: 01:57:41 Перевод: Профессиональный (многоголосый, закадровый) | TVShows (Thx. SunOfABeach) Субтитры: Английские (full, SDH) Раздача от: Автор релиза: JNS82. Формат: MKV Качество: WEB-DL 1080p | AMZN Видео: MPEG-4 AVC, 1920x960, 8927 Кбит/с, (2.000), 24.000 fps Аудио #1: AC3, 6 ch, 384 Кбит/с | RUS | Аудио #2: E-AC3 JOC, 6 ch, 576 Кбит/с | ENG |
[+] MediaInfoОбщее Уникальный идентификатор : 252766038656213347872233489911346029131 (0xBE28F7E103F8D44FA0BDCF383CEAE24B) Полное имя : D:TorrentsThe.Idea.of.You.2024.1080p.AMZN_от New-Team.mkv Формат : Matroska Версия формата : Version 4 Размер файла : 8,13 Гбайт Продолжительность : 1 ч. 57 м. Общий поток : 9 890 Кбит/сек Название фильма : The.Idea.of.You.2024.1080p.AMZN_от New-Team Дата кодирования : UTC 2024-05-10 14:29:37 Программа кодирования : mkvmerge v79.0 ('Funeral Pyres') 64-bit Библиотека кодирования : libebml v1.4.4 + libmatroska v1.7.1 Видео Идентификатор : 1 Формат : AVC Формат/Информация : Advanced Video Codec Профиль формата : High@L4 Настройки формата : CABAC / 4 Ref Frames Параметр CABAC формата : Да Параметр RefFrames формата : 4 кадра Идентификатор кодека : V_MPEG4/ISO/AVC Продолжительность : 1 ч. 57 м. Вид битрейта : Постоянный Битрейт : 8 927 Кбит/сек Номинальный битрейт : 10 000 Кбит/сек Ширина : 1 920 пикселей Высота : 960 пикселей Соотношение сторон : 2,000 Режим частоты кадров : Постоянный Частота кадров : 24,000 кадра/сек Цветовое пространство : YUV Субдискретизация насыщенности : 4:2:0 Битовая глубина : 8 бит Тип развёртки : Прогрессивная Бит/(Пиксели*Кадры) : 0.202 Размер потока : 7,34 Гбайт (90%) Язык : English Default : Да Forced : Нет Цветовой диапазон : Limited Основные цвета : BT.709 Характеристики трансфера : BT.709 Коэффициенты матрицы : BT.709 Аудио #1 Идентификатор : 2 Формат : AC-3 Формат/Информация : Audio Coding 3 Коммерческое название : Dolby Digital Идентификатор кодека : A_AC3 Продолжительность : 1 ч. 57 м. Вид битрейта : Постоянный Битрейт : 384 Кбит/сек Каналы : 6 каналов Channel layout : L R C LFE Ls Rs Частота : 48,0 КГц Частота кадров : 31,250 кадров/сек (1536 SPF) Метод сжатия : С потерями Размер потока : 323 Мбайт (4%) Заголовок : MVO - TVShows Язык : Russian Service kind : Complete Main Default : Да Forced : Нет Аудио #2 Идентификатор : 3 Формат : E-AC-3 JOC Формат/Информация : Enhanced AC-3 with Joint Object Coding Коммерческое название : Dolby Digital Plus with Dolby Atmos Идентификатор кодека : A_EAC3 Продолжительность : 1 ч. 57 м. Вид битрейта : Постоянный Битрейт : 576 Кбит/сек Каналы : 6 каналов Channel layout : L R C LFE Ls Rs Частота : 48,0 КГц Частота кадров : 31,250 кадров/сек (1536 SPF) Метод сжатия : С потерями Размер потока : 485 Мбайт (6%) Заголовок : Original Язык : English Service kind : Complete Main Default : Нет Forced : Нет Complexity index : 16 Number of dynamic objects : 15 Bed channel count : 1 канал Bed channel configuration : LFE Текст #1 Идентификатор : 4 Формат : UTF-8 Идентификатор кодека : S_TEXT/UTF8 Идентификатор кодека/Информация : UTF-8 Plain Text Продолжительность : 1 ч. 52 м. Битрейт : 73 бит/сек Count of elements : 1797 Размер потока : 60,9 Кбайт (0%) Заголовок : Язык : English Default : Нет Forced : Нет Текст #2 Идентификатор : 5 Формат : UTF-8 Идентификатор кодека : S_TEXT/UTF8 Идентификатор кодека/Информация : UTF-8 Plain Text Продолжительность : 1 ч. 55 м. Битрейт : 81 бит/сек Count of elements : 2023 Размер потока : 68,4 Кбайт (0%) Заголовок : Язык : English Default : Нет Forced : Нет

Всего файлов в раздаче: 1 
The.Idea.of.You.2024.1080p.AMZN_от New-Team.mkv8.13 GB

Похожие раздачи по запросу - Мысль
2024-05-11 magnet Мысль о тебе / The Idea of You (2024) WEB-DLRip от New-Team | P | TVShows 1.46 GB ↑ 1 ↓ 3
2024-05-11 magnet Мысль о тебе / The Idea of You (2024) WEB-DL 720p от селезень | P | TVShows 3.64 GB ↑ 0 ↓ 0

Кто качает (только для создателя раздачи и модераторов):
ПользовательIP:портОтдалПринялОстатокСидируетТоррент клиентОбновился
1 Аноним 169.200.80.93:43853 2.80 MB 4.22 GB 8.05 GB нет -qB4390- 17:06 2024-05-22
2 Аноним 194.227.251.80:32000 3.34 MB 1.86 GB 8.05 GB нет -qB4390- 17:13 2024-05-22
3 Аноним 125.209.43.77:38025 0.00 B 0.00 B 8589934592.00 GB нет -qB4390- 16:47 2024-05-22
4 Аноним 93.235.253.80:34977 0.00 B 0.00 B 8589934592.00 GB нет -qB4390- 16:49 2024-05-22
5 Аноним 186.216.24.216:32000 0.00 B 0.00 B 8589934592.00 GB нет -qB4390- 17:14 2024-05-22

Комментарии


Зарегистрируйтесь чтобы добавить комментарий
Торрент клиент
byTorrent - программа для загрузки торрент-файлов.

Скачать byTorrent.exe (1,5 МБ)

Скачать byTorrent.zip (0,6 МБ)

Поддержи torrent.by
российских рублей
(300 российских рублей это 4$)

Обратная связь rss

End game ©