↑↓torrent.by
Поиск
Логин:  Регистрация
Пароль:

Laibach - Opus Dei [Remastered, 24Bit, Hi-Res] (1987/2024) FLAC

download Скачать торрент-файл   magnet Магнитная ссылка Размер: 707.09 MB Добавлен: 2024-05-11 11:00
Пиры будут получены из сети DHT
Последний сидер был замечен 2024-05-12 19:54
Laibach - Opus Dei (1987) Remastered, 2024, Mute Жанр: Industrial, Neo-Classical, Experimental, Ambient, Spoken-Word Издание: Mute Источник: ссылка Продолжительность: 00:55:50 Кодек: FLAC 24/48 Битрейт: Lossless|WEB-DL Тип рипа: tracks Треклист: 01. Leben Heißt Leben (Opus Dei) (5:30) 02. Geburt einer Nation (One Vision) (4:18) 03. Leben-Tod (3:56) 04. F.I.A.T. (Let It Be) (5:10) 05. Trans-national (4:27) 06. How the West Was Won (4:24) 07. Opus Dei (Life Is Life) (5:01) 08. The Great Seal (4:15) 09. Geburt einer Nation (One Vision) (Eine Richtung und ein Volk Version) (5:39) 10. Leben Heißt Leben (Opus Dei) (Marche Funèbre Version) (4:17) 11. Geburt einer Nation (One Vision) (3. Oktober – Kraftbach – Version) (8:53)
[+] Дополнительная информация: https://laibach.bandcamp.com/album/opus-dei-remastered-deluxe-edition https://www.qobuz.com/gb-en/album/opus-dei-laibach/ekhkffvkhww6a
[+] Отчёт DR: -------------------------------------------------------------------------------- Analyzed: Laibach / Opus Dei (2024 Remaster) -------------------------------------------------------------------------------- DR Peak RMS Duration Track -------------------------------------------------------------------------------- DR8 -0.11 dB -9.87 dB 5:30 01-Leben Heißt Leben (Opus Dei) DR8 -0.11 dB -9.26 dB 4:18 02-Geburt einer Nation (One Vision) DR9 -0.11 dB -10.14 dB 3:56 03-Leben-Tod DR9 -0.11 dB -11.38 dB 5:10 04-F.I.A.T. (Let It Be) DR8 -0.11 dB -10.14 dB 4:27 05-Trans-national DR9 -0.11 dB -10.80 dB 4:24 06-How the West Was Won DR9 -0.11 dB -11.84 dB 5:01 07-Opus Dei (Life Is Life) DR10 -0.11 dB -12.28 dB 4:15 08-The Great Seal DR8 -0.11 dB -9.25 dB 5:39 09-Geburt einer Nation (One Vision) (Eine Richtung und ein Volk Version) DR12 -0.11 dB -13.25 dB 4:17 10-Leben Heißt Leben (Opus Dei) (Marche Funèbre Version) DR9 -0.11 dB -12.29 dB 8:53 11-Geburt einer Nation (One Vision) (3. Oktober – Kraftbach – Version) -------------------------------------------------------------------------------- Number of tracks: 11 Official DR value: DR9 Samplerate: 48000 Hz Channels: 2 Bits per sample: 24 Bitrate: 1696 kbps Codec: FLAC ================================================================================

Всего файлов в раздаче: 12 
01 Leben Heißt Leben (Opus Dei).flac69.92 MB
02 Geburt einer Nation (One Vision).flac56.48 MB
03 Leben-Tod.flac51.17 MB
04 F.I.A.T. (Let It Be).flac62.60 MB
05 Trans-national.flac57.93 MB
06 How the West Was Won.flac56.16 MB
07 Opus Dei (Life Is Life).flac65.15 MB
08 The Great Seal.flac52.67 MB
09 Geburt einer Nation (One Vision) (Eine Richtung und ein Volk Version).flac71.31 MB
10 Leben Heißt Leben (Opus Dei) (Marche Funèbre Version).flac52.52 MB
Показать все файлы

Похожие раздачи по запросу - Laibach
2023-01-23 magnet Laibach - Коллекция [8 Relises] (2018-2023) FLAC 2.05 GB ↑ 0 ↓ 0

Комментарии


Зарегистрируйтесь чтобы добавить комментарий
Торрент клиент
byTorrent - программа для загрузки торрент-файлов.

Скачать byTorrent.exe (1,5 МБ)

Скачать byTorrent.zip (0,6 МБ)

Поддержи torrent.by
российских рублей
(300 российских рублей это 4$)

Обратная связь rss

End game ©