↑↓torrent.by
Поиск
Логин:  Регистрация
Пароль:

Powerman 5000 - Abandon Ship [24Bit, Hi-Res] (2024) FLAC

download Скачать торрент-файл   magnet Магнитная ссылка Размер: 396.67 MB Добавлен: 2024-05-11 11:00
Пиры будут получены из сети DHT
Последний сидер был замечен 2024-05-11 11:00
Powerman 5000 - Abandon Ship (2024) Жанр: Punk-Rock, Industrial-Metal, Nu-Metal Издание: Cleopatra Records Источник: ссылка Продолжительность: 00:33:25 Кодек: FLAC 24/44.1 Битрейт: Lossless|WEB-DL Тип рипа: tracks Треклист: 01. Invisible Man (3:01) 02. 1999 (3:18) 03. Dancing Like We're Dead (3:29) 04. Wake Up Take Up Space (3:16) 05. The Company Loves Misery (2:53) 06. Bloodsuckers (3:10) 07. This Is A Life (2:27) 08. GTFO (3:30) 09. Places For People That Scream (3:36) 10. The Last Chapter (4:44)
[+] Отчёт DR: ------------------------------------------------------------------------------- Analyzed: Powerman 5000 / Abandon Ship -------------------------------------------------------------------------------- DR Peak RMS Duration Track -------------------------------------------------------------------------------- DR6 0.00 dB -7.75 dB 3:01 01-Invisible Man DR6 0.00 dB -7.68 dB 3:18 02-1999 DR6 0.00 dB -7.63 dB 3:29 03-Dancing Like We're Dead DR5 0.00 dB -7.72 dB 3:16 04-Wake Up Take Up Space DR6 0.00 dB -7.75 dB 2:53 05-The Company Loves Misery DR5 -0.16 dB -7.66 dB 3:10 06-Bloodsuckers DR7 0.00 dB -8.97 dB 2:27 07-This Is A Life DR6 0.00 dB -7.92 dB 3:30 08-GTFO DR5 -0.08 dB -7.35 dB 3:36 09-Places For People That Scream DR8 0.00 dB -10.63 dB 4:44 10-The Last Chapter -------------------------------------------------------------------------------- Number of tracks: 10 Official DR value: DR6 Samplerate: 44100 Hz Channels: 2 Bits per sample: 24 Bitrate: 1500 kbps Codec: FLAC ================================================================================

Всего файлов в раздаче: 11 
01 Invisible Man.flac37.89 MB
02 1999.flac38.44 MB
03 Dancing Like We're Dead.flac41.02 MB
04 Wake Up Take Up Space.flac39.31 MB
05 The Company Loves Misery.flac34.31 MB
06 Bloodsuckers.flac38.64 MB
07 This Is A Life.flac29.44 MB
08 GTFO.flac42.85 MB
09 Places For People That Scream.flac43.49 MB
10 The Last Chapter.flac51.07 MB
Показать все файлы

Похожие раздачи по запросу - Powerman
2024-05-10 magnet Powerman 5000 - Abandon Ship (2024) MP3 77.96 MB ↑ 0 ↓ 0

Комментарии


Зарегистрируйтесь чтобы добавить комментарий
Торрент клиент
byTorrent - программа для загрузки торрент-файлов.

Скачать byTorrent.exe (1,5 МБ)

Скачать byTorrent.zip (0,6 МБ)

Поддержи torrent.by
российских рублей
(300 российских рублей это 4$)

Обратная связь rss

End game ©