↑↓torrent.by
Поиск
Логин:  Регистрация
Пароль:

Академия пана Клекса / Академія пана Клекса / Akademia pana Kleksa (2023) WEB-DL 1080p | D | Netflix | UKR

download Скачать торрент-файл   magnet Магнитная ссылка Размер: 7.06 GB Раздают: 1 Качают: 0 Добавлен: 2024-05-11 11:00
Пиры будут получены из сети DHT
Последний сидер был замечен сегодня в 14:54
Информация о фильме Название: Академия пана Клекса Оригинальное название: Akademia pana Kleksa Год выхода: 2023 Жанр: фэнтези Режиссер: Мацей Кавульски В ролях: Томаш Кот, Антонина Литвиняк, Петр Фрончевский, Себастьян Станкевич, Агнешка Гроховска, Данута Стенка, Daniel Walasek, Konrad Repinski, Igor Fernandez-Kowalczyk, Apolonia Galeska О фильме: На первый взгляд ничем не примечательная девочка, которая ищет пропавшего отца, получает приглашение в магический университет от эксцентричного учителя, пана Клекса. Страна: Польша Продолжительность: 02:06:47 Перевод: Профессиональный дублированный | Так Треба Продакшн / Netflix (Украинский) Файл Кодек: x.264 Качество: WEB-DL 1080p Видео: AVC, 1920x1080 (16:9), 25.000 fps, 6 148 kb/s Аудио 1: E-AC3, 48.0 kHz, 6 ch, 640 kb/s | UKR Аудио 2: AC3, 48.0 kHz, 6 ch, 640 kb/s | UKR Аудио 3: E-AC3, 48.0 kHz, 6 ch, 640 kb/s | POL Субтитры: украинские (forced, full), польские (forced, full)
[+] MIGeneral Unique ID : 254668187342141401379081727846158588608 (0xBF974F0CC371BBB914276449ED365AC0) Complete name : Akademia.Pana.Kleksa.(2023).WEB-DL.1080p.Ukr.Pol.mkv Format : Matroska Format version : Version 4 File size : 7.06 GiB Duration : 2 h 6 min Overall bit rate : 7 975 kb/s Encoded date : UTC 2024-05-10 10:00:20 Writing application : mkvmerge v84.0 ('Sleeper') 64-bit Writing library : libebml v1.4.5 + libmatroska v1.7.1 Cover : Yes Attachments : Cover.jpg Video ID : 1 Format : AVC Format/Info : Advanced Video Codec Format profile : High@L4 Format settings : CABAC / 1 Ref Frames Format settings, CABAC : Yes Format settings, Reference frames : 1 frame Format settings, GOP : M=1, N=24 Codec ID : V_MPEG4/ISO/AVC Duration : 2 h 6 min Bit rate mode : Constant Bit rate : 6 148 kb/s Width : 1 920 pixels Height : 1 080 pixels Display aspect ratio : 16:9 Frame rate mode : Constant Frame rate : 25.000 FPS Color space : YUV Chroma subsampling : 4:2:0 Bit depth : 8 bits Scan type : Progressive Bits/(Pixel*Frame) : 0.119 Stream size : 5.36 GiB (76%) Default : Yes Forced : No Color range : Limited Color primaries : BT.709 Transfer characteristics : BT.709 Matrix coefficients : BT.709 Audio #1 ID : 2 Format : E-AC-3 Format/Info : Enhanced AC-3 Commercial name : Dolby Digital Plus Codec ID : A_EAC3 Duration : 2 h 6 min Bit rate mode : Constant Bit rate : 640 kb/s Channel(s) : 6 channels Channel layout : L R C LFE Ls Rs Sampling rate : 48.0 kHz Frame rate : 31.250 FPS (1536 SPF) Compression mode : Lossy Stream size : 580 MiB (8%) Title : DUB (Так Треба Продакшн / Netflix) Language : Ukrainian Service kind : Complete Main Default : Yes Forced : No Audio #2 ID : 3 Format : AC-3 Format/Info : Audio Coding 3 Commercial name : Dolby Digital Codec ID : A_AC3 Duration : 2 h 6 min Bit rate mode : Constant Bit rate : 640 kb/s Channel(s) : 6 channels Channel layout : L R C LFE Ls Rs Sampling rate : 48.0 kHz Frame rate : 31.250 FPS (1536 SPF) Compression mode : Lossy Stream size : 580 MiB (8%) Title : DUB (Так Треба Продакшн / Netflix) Language : Ukrainian Service kind : Complete Main Default : No Forced : No Audio #3 ID : 4 Format : E-AC-3 Format/Info : Enhanced AC-3 Commercial name : Dolby Digital Plus Codec ID : A_EAC3 Duration : 2 h 6 min Bit rate mode : Constant Bit rate : 640 kb/s Channel(s) : 6 channels Channel layout : L R C LFE Ls Rs Sampling rate : 48.0 kHz Frame rate : 31.250 FPS (1536 SPF) Compression mode : Lossy Stream size : 580 MiB (8%) Title : Original Language : Polish Service kind : Complete Main Default : No Forced : No Text #1 ID : 5 Format : UTF-8 Codec ID : S_TEXT/UTF8 Codec ID/Info : UTF-8 Plain Text Duration : 2 h 0 min Bit rate : 1 b/s Count of elements : 25 Stream size : 1.19 KiB (0%) Title : Forced Language : Ukrainian Default : Yes Forced : No Text #2 ID : 6 Format : UTF-8 Codec ID : S_TEXT/UTF8 Codec ID/Info : UTF-8 Plain Text Duration : 2 h 6 min Bit rate : 54 b/s Count of elements : 1099 Stream size : 50.5 KiB (0%) Title : Full Language : Ukrainian Default : No Forced : No Text #3 ID : 7 Format : UTF-8 Codec ID : S_TEXT/UTF8 Codec ID/Info : UTF-8 Plain Text Duration : 1 h 54 min Bit rate : 2 b/s Count of elements : 71 Stream size : 1.80 KiB (0%) Title : Forced Language : Polish Default : No Forced : No Text #4 ID : 8 Format : UTF-8 Codec ID : S_TEXT/UTF8 Codec ID/Info : UTF-8 Plain Text Duration : 2 h 6 min Bit rate : 56 b/s Count of elements : 1731 Stream size : 52.0 KiB (0%) Title : Full Language : Polish Default : No Forced : No
[+] Скриншоты

Всего файлов в раздаче: 1 
Akademia.Pana.Kleksa.(2023).WEB-DL.1080p.Ukr.Pol.mkv7.06 GB

Похожие раздачи по запросу - Академия
2024-05-15 magnet Моя геройская академия / Boku no Hero Academia / My Hero Academia [07x01-02 из 21] (2024) WEB-DL 1080p от Jaskier | P 2.76 GB ↑ 0 ↓ 0
2024-05-10 magnet Книжнaя cеpия - «Академия магии» [198 книг] (2014-2024) FB2 383.10 MB ↑ 0 ↓ 0
2024-04-11 magnet Ascold Flow - Вторжение. Академия магоубийц [5 книг] (2023-2024) МР3 2.25 GB ↑ 0 ↓ 0
2024-02-15 magnet Книжнaя cеpия - «Академия магии» [196 книг] (2014-2024) FB2 375.85 MB ↑ 0 ↓ 0

Кто качает (только для создателя раздачи и модераторов):
ПользовательIP:портОтдалПринялОстатокСидируетТоррент клиентОбновился
1 Аноним 85.128.116.218:51413 0.00 B 7.06 GB 0.00 B да -TR3000- 14:54 2024-05-23

Комментарии


Зарегистрируйтесь чтобы добавить комментарий
Торрент клиент
byTorrent - программа для загрузки торрент-файлов.

Скачать byTorrent.exe (1,5 МБ)

Скачать byTorrent.zip (0,6 МБ)

Поддержи torrent.by
российских рублей
(300 российских рублей это 4$)

Обратная связь rss

End game ©