↑↓torrent.by
Поиск
Логин:  Регистрация
Пароль:

Серебряная пуля / Silver Bullet (1985) HDRip-AVC от ExKinoRay | P, A

download Скачать торрент-файл   magnet Магнитная ссылка Размер: 744.99 MB Добавлен: 2024-05-11 11:00
Пиры будут получены из сети DHT
Последний сидер был замечен 2024-05-11 15:17
Информация о фильме Название: Серебряная пуля Оригинальное название: Silver Bullet Год выхода: 1985 Жанр: Ужасы Режиссер: Дэниэл Эттиэс В ролях: Гэри Бьюзи, Эверетт МакГилл, Кори Хэйм, Меган Фоллоуз, Робин Гров, Леон Рассом, Терри О`Куинн, Билл Смитрович, Джо Райт, Кент Бродхерст О фильме : Маленький американский городок охвачен страхом: по ночам, при полной луне кто-то зверски убивает его жителей. Кто-то покрытый шерстью, таинственный и неуловимый. Добровольцы, отправившиеся на поиски убийцы, сами становятся его жертвами. Лишь 13-летний Марти, прикованный к инвалидной коляске, убежден, что убийства совершает оборотень, против которого бессильно любое оружие, кроме серебряной пули. Марти не только видел чудовище собственными глазами, но даже ранил в глаз. Но никто не верит рассказам парнишки, кроме его дяди Реда. А между тем оборотень уже готов вновь выйти на охоту… Страна: США, Нидерланды Студия: Dino De Laurentiis Company, Famous Films, International Film Corporation Продолжительность: 01:34:58 Перевод: Профессиональный (многоголосый, закадровый) + Авторский (одноголосый, закадровый) Файл Формат: MKV Качество: HDRip-AVC Видео: MPEG-4 AVC, 768x328, ~ 943 Кбит/с Аудио #1: AAC-HE, 2 ch, ~ 76 Кбит/с | Профессиональный многоголосый, «ОРТ» Аудио #2: AAC-HE, 2 ch, ~ 76 Кбит/с | Авторский | Гаврилов Андрей Юрьевич | Субтитры: Русские, английские
[+] MIОбщее Уникальный идентификатор : 232556129334090169620013629966097025175 (0xAEF4AE6B380DD59EA8AFBD5EAF538897) Полное имя : D:MOVIESSilver Bullet.1985.HDRip-AVC. ExKinoRay.mkv Формат : Matroska Версия формата : Version 4 / Version 2 Размер файла : 745 Мбайт Продолжительность : 1 ч. 34 м. Общий поток : 1097 Кбит/сек Дата кодирования : UTC 2018-09-08 15:54:32 Программа кодирования : mkvmerge v15.0.0 ('Duel with the Devil') 64-bit Библиотека кодирования : libebml v1.3.5 + libmatroska v1.4.5 Видео Идентификатор : 1 Формат : AVC Формат/Информация : Advanced Video Codec Профиль формата : High@L4.1 Параметр CABAC формата : Да Параметр RefFrames формата : 12 кадров Идентификатор кодека : V_MPEG4/ISO/AVC Продолжительность : 1 ч. 34 м. Битрейт : 943 Кбит/сек Ширина : 768 пикселей Высота : 328 пикселей Соотношение сторон : 2,35:1 Режим частоты кадров : Постоянный Частота кадров : 23,976 (24000/1001) кадра/сек Цветовое пространство : YUV Субдискретизация насыщенности : 4:2:0 Битовая глубина : 8 бит Тип развёртки : Прогрессивная Бит/(Пиксели*Кадры) : 0.156 Размер потока : 640 Мбайт (86%) Библиотека кодирования : x264 core 152 r2851kMod ba24899 Настройки программы : cabac=1 / ref=12 / deblock=1:-3:-3 / analyse=0x3:0x133 / me=umh / subme=10 / psy=1 / fade_compensate=0.00 / psy_rd=1.00:0.15 / mixed_ref=1 / me_range=32 / chroma_me=1 / trellis=2 / 8x8dct=1 / cqm=0 / deadzone=21,11 / fast_pskip=0 / chroma_qp_offset=-3 / threads=6 / lookahead_threads=1 / sliced_threads=0 / nr=0 / decimate=0 / interlaced=0 / bluray_compat=0 / constrained_intra=0 / bframes=11 / b_pyramid=2 / b_adapt=2 / b_bias=0 / direct=3 / weightb=1 / open_gop=0 / weightp=2 / keyint=240 / keyint_min=23 / scenecut=40 / intra_refresh=0 / rc_lookahead=40 / rc=2pass / mbtree=1 / bitrate=943 / ratetol=1.0 / qcomp=0.60 / qpmin=0 / qpmax=69 / qpstep=4 / cplxblur=20.0 / qblur=0.5 / ip_ratio=1.40 / aq=3:1.00 Default : Да Forced : Нет Аудио #1 Идентификатор : 2 Формат : AAC Формат/Информация : Advanced Audio Codec Профиль формата : HE-AAC / LC Идентификатор кодека : A_AAC Продолжительность : 1 ч. 34 м. Битрейт : 76,0 Кбит/сек Каналы : 2 канала Расположение каналов : Front: L R Частота : 48,0 КГц / 24,0 КГц Частота кадров : 23,438 кадра/сек (1024 SPF) Метод сжатия : С потерями Задержка видео : 31 мс. Размер потока : 51,6 Мбайт (7%) Default : Да Forced : Нет Аудио #2 Идентификатор : 3 Формат : AAC Формат/Информация : Advanced Audio Codec Профиль формата : HE-AAC / LC Идентификатор кодека : A_AAC Продолжительность : 1 ч. 34 м. Битрейт : 76,0 Кбит/сек Каналы : 2 канала Расположение каналов : Front: L R Частота : 48,0 КГц / 24,0 КГц Частота кадров : 23,438 кадра/сек (1024 SPF) Метод сжатия : С потерями Задержка видео : 31 мс. Размер потока : 51,6 Мбайт (7%) Default : Нет Forced : Нет Текст #1 Идентификатор : 4 Формат : UTF-8 Идентификатор кодека : S_TEXT/UTF8 Идентификатор кодека/Информация : UTF-8 Plain Text Продолжительность : 1 ч. 31 м. Битрейт : 66 бит/сек ElementCount : 722 Размер потока : 44,7 Кбайт (0%) Язык : Russian Default : Нет Forced : Нет Текст #2 Идентификатор : 5 Формат : UTF-8 Идентификатор кодека : S_TEXT/UTF8 Идентификатор кодека/Информация : UTF-8 Plain Text Продолжительность : 1 ч. 30 м. Битрейт : 45 бит/сек ElementCount : 815 Размер потока : 29,9 Кбайт (0%) Язык : English Default : Нет Forced : Нет
[+] Скриншоты

Всего файлов в раздаче: 1 
Silver Bullet.1985.HDRip-AVC. ExKinoRay.mkv744.99 MB

Кто качает (только для создателя раздачи и модераторов): Локальные пиры отсутствуют

Комментарии


Зарегистрируйтесь чтобы добавить комментарий
Торрент клиент
byTorrent - программа для загрузки торрент-файлов.

Скачать byTorrent.exe (1,5 МБ)

Скачать byTorrent.zip (0,6 МБ)

Поддержи torrent.by
российских рублей
(300 российских рублей это 4$)

Обратная связь rss

End game ©