↑↓torrent.by
Поиск
Логин:  Регистрация
Пароль:

Бандиты / Bandits (2001) HDTVRip-AVC от DoMiNo | P | Open Matte

download Скачать торрент-файл   magnet Магнитная ссылка Размер: 2.18 GB Добавлен: 2024-05-11 11:00
Пиры будут получены из сети DHT
Последний сидер был замечен 2024-05-18 21:16
Информация о фильме Название: Бандиты Оригинальное название: Bandits Год выпуска: 2001 Жанр: Драма, мелодрама, комедия, криминал Выпущено: США, Baltimore Spring Creek Productions, Cheyenne Enterprises, Empire Pictures, Epsilon Motion Pictures, Lotus Pictures, MGM Режиссер: Бэрри Левинсон В ролях: Брюс Уиллис, Билли Боб Торнтон, Кейт Бланшетт, Трой Гэрити, Брайан Ф. О`Бирн, Стэйси Трэвис, Бобби Слэйтон, Дженьюэри Джонс, Азура Скай, Пегги Майли, Уильям Конверс-Робертс, Ричард Риле, Миколе Миркурио, Скотт Баркхолдер, Энтони Берч, Сэм Левинсон, Скаут ЛаРу Уиллис, Таллула Белль Уиллис, Джон Эванс, Джон Харингтон Блэнд, Синди Голдфилд, Хезер Матисон, Эрин-Кейт Уиткомб, Ким Богус, Майкл И. Соммерс, Рич Сиклер, Майкл Бернбаум, Джо Унитас, Рик Шустер, Дженнифер Йорк, Хосе Гильермо Гарсия, Альфред Де Контрерас О фильме: Джо Блейк и Терри Коллинз — необычные и удачливые грабители. Без единого выстрела, на одном обаянии и очаровательном нахальстве они взяли больше банков, чем кто-либо. Но однажды в компанию героев попадает бедовая домохозяйка Кейт Уилер, в которую оба немедленно влюбляются, и всё идёт кувырком. Страна: США Продолжительность: 01:58:02 Перевод: Профессиональный (многоголосый, закадровый) Видеосервис Субтитры: Русские, английские Файл Формат: MKV Качество: HDTVRip-AVC | Open Matte Видео: x264, ~2197 Кбит/с, 1036x558, 25 fps Аудио: AC3, 6 ch, 448 Кбит/с BD**********vs************HDTV
[+] M/IGeneral Complete name : Бандиты_(2001)_HDTVRIP-AVC_O.M_.mkv Format : Matroska Format version : Version 4 File size : 2.18 GiB Duration : 1 h 58 min Overall bit rate : 2 647 kb/s Movie name : Бандиты Attachments : poster.jpg COUNTRY : United States DATE : 2001-10-12 DIRECTOR : Barry Levinson GENRE : боевик, комедия, криминал, мелодрама ITUNEXTC : mpaa|PG-13|300| ORIGINAL_TITLE : Bandits PUBLISHER : Epsilon Motion Pictures, Hyde Park Entertainment, Empire Pictures, Lotus Pictures, Baltimore Spring Creek Productions, Cheyenne Enterprises, Metro-Goldwyn-Mayer RATING : 6.20 WRITER : Harley Peyton Video ID : 1 Format : AVC Format/Info : Advanced Video Codec Format profile : High@L4.1 Format settings : CABAC / 12 Ref Frames Format settings, CABAC : Yes Format settings, Reference : 12 frames Codec ID : V_MPEG4/ISO/AVC Duration : 1 h 58 min Bit rate : 2 197 kb/s Width : 1 036 pixels Height : 558 pixels Display aspect ratio : 1.85:1 Frame rate mode : Constant Frame rate : 25.000 FPS Color space : YUV Chroma subsampling : 4:2:0 Bit depth : 8 bits Scan type : Progressive Bits/(Pixel*Frame) : 0.152 Stream size : 1.77 GiB (81%) Title : RIP_BY_-=DoMiNo=- Writing library : x264 core 157 r2935M 545de2f Encoding settings : cabac=1 / ref=12 / deblock=1:-1:-1 / analyse=0x3:0x133 / me=umh / subme=11 / psy=1 / psy_rd=1.05:0.15 / mixed_ref=1 / me_range=32 / chroma_me=1 / trellis=2 / 8x8dct=1 / cqm=0 / deadzone=21,11 / fast_pskip=0 / chroma_qp_offset=-3 / threads=6 / lookahead_threads=1 / sliced_threads=0 / nr=0 / decimate=1 / interlaced=0 / bluray_compat=0 / constrained_intra=0 / bframes=12 / b_pyramid=2 / b_adapt=2 / b_bias=0 / direct=3 / weightb=1 / open_gop=0 / weightp=2 / keyint=250 / keyint_min=25 / scenecut=40 / intra_refresh=0 / rc=2pass / mbtree=0 / bitrate=2197 / ratetol=1.0 / qcomp=0.70 / qpmin=0 / qpmax=69 / qpstep=4 / cplxblur=20.0 / qblur=0.5 / ip_ratio=1.40 / pb_ratio=1.30 / aq=1:0.80 Language : zxx Default : Yes Forced : Yes Color range : Limited Color primaries : BT.709 Transfer characteristics : BT.709 Matrix coefficients : BT.709 Audio ID : 2 Format : AC-3 Format/Info : Audio Coding 3 Commercial name : Dolby Digital Codec ID : A_AC3 Duration : 1 h 58 min Bit rate mode : Constant Bit rate : 448 kb/s Channel(s) : 6 channels Channel layout : L R C LFE Ls Rs Sampling rate : 48.0 kHz Frame rate : 31.250 FPS (1536 SPF) Bit depth : 32 bits Compression mode : Lossy Stream size : 378 MiB (17%) Title : Видеосервис Language : Russian Service kind : Complete Main Default : Yes Forced : No Text #1 ID : 3 Format : UTF-8 Codec ID : S_TEXT/UTF8 Codec ID/Info : UTF-8 Plain Text Title : Видеосервис Language : Russian Default : Yes Forced : No Text #2 ID : 4 Format : UTF-8 Codec ID : S_TEXT/UTF8 Codec ID/Info : UTF-8 Plain Text Language : Russian Default : No Forced : No Text #3 ID : 5 Format : UTF-8 Codec ID : S_TEXT/UTF8 Codec ID/Info : UTF-8 Plain Text Language : English Default : No Forced : No Menu 00:00:00.000 : :Глава 1 00:12:11.000 : :Глава 2 00:25:00.920 : :Глава 3 00:37:00.920 : :Глава 4 00:52:10.520 : :Глава 5 01:04:47.800 : :Глава 6 01:13:36.600 : :Глава 7 01:26:01.240 : :Глава 8 01:36:41.880 : :Глава 9 01:43:33.720 : :Глава 10 01:53:26.840 : :Глава 11
[+] Скриншоты

Всего файлов в раздаче: 1 
Бандиты_(2001)_HDTVRIP-AVC_O.M_[-=DoMiNo=-].mkv2.18 GB

Комментарии


Зарегистрируйтесь чтобы добавить комментарий
Торрент клиент
byTorrent - программа для загрузки торрент-файлов.

Скачать byTorrent.exe (1,5 МБ)

Скачать byTorrent.zip (0,6 МБ)

Поддержи torrent.by
российских рублей
(300 российских рублей это 4$)

Обратная связь rss

End game ©