↑↓torrent.by
Поиск
Логин:  Регистрация
Пароль:

Кин-дза-дза! (1986) BDRip-AVC от DoMiNo | JPN Transfer

download Скачать торрент-файл   magnet Магнитная ссылка Размер: 2.89 GB Добавлен: 2024-05-11 11:00
Пиры будут получены из сети DHT
Последний сидер был замечен вчера в 20:48
Информация о фильме Название: Кин-дза-дза! Год выпуска: 1986 Жанр: Фантастика, драма, комедия Режиссер: Георгий Данелия В ролях: Станислав Любшин, Евгений Леонов, Юрий Яковлев, Леван Габриадзе, Ольга Машная, Ирина Шмелёва, Лев Перфилов, Анатолий Серенко, Александра Дорохина, Олеся Иванова, Татьяна Новицкая, Татьяна Перфильева, Людмила Солоденко, Галина Юркова-Данелия, Валентин Букин, Юрий Воронков, Николай Гаро, Игорь Боголюбов, Валентин Голубенко, Олег Матвеев (V), Харий Швейц, Геннадий Иванов (II), Игорь Кан, Александр Литовкин, Виктор Махмутов, Виктор Маренков, Анатолий Мартынов, Владимир Фёдоров, Валерий Фролов, Геннадий Ялович, Юрий Наумцев, Владимир Разумовский, Нина Тер-Осипян, Георгий Данелия О фильме: Прораб Владимир Николаевич Машков и не подозревал, что обычный путь до универсама за хлебом и макаронами обернется межгалактическими путешествиями. А все эта встреча со студентом в кроличьей шапке с большой сумкой и с каким-то маленьким устройством — «машинкой перемещения», как он ее сам называл. Короче, нажал на кнопку — и оказался вместе с молодым человеком в пустыне, и не в каких-нибудь Каракумах, а на планете-пустыне Плюк в тентуре, галактика Кин-дза-дза в спирали. Выпущено: СССР Студия: Мосфильм Продолжительность: 01:06:13 + 01:06:36 Язык: Русский Субтитры: Русские, английские Файл Формат: Matroska Качество: BDRip-AVC Видео: 814x594 at 23.976 fps, x264, ~2600 kbps Аудио: AC3, 2 ch, ~448 kbps - | Русский | - Формат субтитров: softsub (SRT) ***Релиз от: -=DoMiNo=-
[+] M/IGeneral Format : Matroska Format version : Version 4 File size : 1.48 GiB Duration : 1 h 6 min Overall bit rate : 3 197 kb/s Movie name : 01_Кин-дза-дза!.(1986).BDRip-AVC. Encoded date : UTC 2020-02-24 17:33:41 Writing application : mkvmerge v43.0.0 ('The Quartermaster') 64-bit Writing library : libebml v1.3.10 + libmatroska v1.5.2 Attachments : poster.jpg / poster 2.jpg Video ID : 1 Format : AVC Format/Info : Advanced Video Codec Format profile : High@L4.1 Format settings : CABAC / 10 Ref Frames Format settings, CABAC : Yes Format settings, Reference : 10 frames Codec ID : V_MPEG4/ISO/AVC Duration : 1 h 6 min Bit rate : 2 747 kb/s Width : 814 pixels Height : 594 pixels Display aspect ratio : 1.370 Frame rate mode : Constant Frame rate : 23.976 (24000/1001) FPS Color space : YUV Chroma subsampling : 4:2:0 Bit depth : 8 bits Scan type : Progressive Bits/(Pixel*Frame) : 0.237 Stream size : 1.27 GiB (86%) Title : RIP_BY_-=DoMiNo=- Writing library : x264 core 157 r2958 57baac4 Encoding settings : cabac=1 / ref=10 / deblock=1:-2:-2 / analyse=0x3:0x133 / me=umh / subme=11 / psy=1 / psy_rd=1.00:0.25 / mixed_ref=1 / me_range=48 / chroma_me=1 / trellis=2 / 8x8dct=1 / cqm=0 / deadzone=21,11 / fast_pskip=1 / chroma_qp_offset=-4 / threads=6 / lookahead_threads=1 / sliced_threads=0 / nr=0 / decimate=1 / interlaced=0 / bluray_compat=0 / constrained_intra=0 / bframes=12 / b_pyramid=2 / b_adapt=2 / b_bias=0 / direct=1 / weightb=1 / open_gop=0 / weightp=2 / keyint=240 / keyint_min=24 / scenecut=40 / intra_refresh=0 / rc_lookahead=60 / rc=crf / mbtree=1 / crf=19.0 / qcomp=0.60 / qpmin=0 / qpmax=69 / qpstep=4 / vbv_maxrate=50000 / vbv_bufsize=62500 / crf_max=30.0 / nal_hrd=none / filler=0 / ip_ratio=1.40 / aq=2:0.90 Language : Russian Default : Yes Forced : No Audio ID : 2 Format : AC-3 Format/Info : Audio Coding 3 Commercial name : Dolby Digital Codec ID : A_AC3 Duration : 1 h 6 min Bit rate mode : Constant Bit rate : 448 kb/s Channel(s) : 2 channels Channel layout : L R Sampling rate : 48.0 kHz Frame rate : 31.250 FPS (1536 SPF) Compression mode : Lossy Stream size : 212 MiB (14%) Language : Russian Service kind : Complete Main Default : Yes Forced : No Text #1 ID : 3 Format : UTF-8 Codec ID : S_TEXT/UTF8 Codec ID/Info : UTF-8 Plain Text Duration : 1 h 3 min Bit rate : 61 b/s Count of elements : 422 Stream size : 28.6 KiB (0%) Language : Russian Default : No Forced : No Text #2 ID : 4 Format : UTF-8 Codec ID : S_TEXT/UTF8 Codec ID/Info : UTF-8 Plain Text Duration : 1 h 3 min Bit rate : 41 b/s Count of elements : 556 Stream size : 19.4 KiB (0%) Language : English Default : No Forced : No Menu 00:00:00.000 : en:Chapter 1 00:08:32.511 : en:Chapter 2 00:16:33.283 : en:Chapter 3 00:20:35.901 : en:Chapter 4 00:25:14.137 : en:Chapter 5 00:33:52.030 : en:Chapter 6 00:42:38.097 : en:Chapter 7 00:48:46.006 : en:Chapter 8 00:54:04.991 : en:Chapter 9 01:03:32.225 : en:Chapter 10 ******************************************************************************* General Format : Matroska Format version : Version 4 File size : 1.41 GiB Duration : 1 h 6 min Overall bit rate : 3 039 kb/s Movie name : 02_Кин-дза-дза!.(1986).BDRip-AVC. Encoded date : UTC 2020-02-24 21:08:41 Writing application : mkvmerge v43.0.0 ('The Quartermaster') 64-bit Writing library : libebml v1.3.10 + libmatroska v1.5.2 Attachments : poster.jpg / poster 2.jpg Video ID : 1 Format : AVC Format/Info : Advanced Video Codec Format profile : High@L4.1 Format settings : CABAC / 10 Ref Frames Format settings, CABAC : Yes Format settings, Reference : 10 frames Codec ID : V_MPEG4/ISO/AVC Duration : 1 h 6 min Bit rate : 2 589 kb/s Width : 814 pixels Height : 594 pixels Display aspect ratio : 1.370 Frame rate mode : Constant Frame rate : 23.976 (24000/1001) FPS Color space : YUV Chroma subsampling : 4:2:0 Bit depth : 8 bits Scan type : Progressive Bits/(Pixel*Frame) : 0.223 Stream size : 1.20 GiB (85%) Writing library : x264 core 157 r2958 57baac4 Encoding settings : cabac=1 / ref=10 / deblock=1:-2:-2 / analyse=0x3:0x133 / me=umh / subme=11 / psy=1 / psy_rd=1.00:0.25 / mixed_ref=1 / me_range=48 / chroma_me=1 / trellis=2 / 8x8dct=1 / cqm=0 / deadzone=21,11 / fast_pskip=1 / chroma_qp_offset=-4 / threads=6 / lookahead_threads=1 / sliced_threads=0 / nr=0 / decimate=1 / interlaced=0 / bluray_compat=0 / constrained_intra=0 / bframes=12 / b_pyramid=2 / b_adapt=2 / b_bias=0 / direct=1 / weightb=1 / open_gop=0 / weightp=2 / keyint=240 / keyint_min=24 / scenecut=40 / intra_refresh=0 / rc_lookahead=60 / rc=crf / mbtree=1 / crf=19.0 / qcomp=0.60 / qpmin=0 / qpmax=69 / qpstep=4 / vbv_maxrate=50000 / vbv_bufsize=62500 / crf_max=30.0 / nal_hrd=none / filler=0 / ip_ratio=1.40 / aq=2:0.90 Language : Russian Default : Yes Forced : No Audio ID : 2 Format : AC-3 Format/Info : Audio Coding 3 Commercial name : Dolby Digital Codec ID : A_AC3 Duration : 1 h 6 min Bit rate mode : Constant Bit rate : 448 kb/s Channel(s) : 2 channels Channel layout : L R Sampling rate : 48.0 kHz Frame rate : 31.250 FPS (1536 SPF) Compression mode : Lossy Stream size : 213 MiB (15%) Language : Russian Service kind : Complete Main Default : Yes Forced : No Text #1 ID : 3 Format : UTF-8 Codec ID : S_TEXT/UTF8 Codec ID/Info : UTF-8 Plain Text Duration : 1 h 4 min Bit rate : 56 b/s Count of elements : 444 Stream size : 26.7 KiB (0%) Language : Russian Default : No Forced : No Text #2 ID : 4 Format : UTF-8 Codec ID : S_TEXT/UTF8 Codec ID/Info : UTF-8 Plain Text Duration : 1 h 6 min Bit rate : 41 b/s Count of elements : 603 Stream size : 20.1 KiB (0%) Title : RIP_BY_-=DoMiNo=- Language : English Default : No Forced : No Menu 00:00:00.000 : en:Chapter 1 00:09:33.031 : en:Chapter 2 00:16:45.713 : en:Chapter 3 00:26:01.477 : en:Chapter 4 00:30:35.334 : en:Chapter 5 00:34:03.417 : en:Chapter 6 00:40:32.806 : en:Chapter 7 00:45:14.879 : en:Chapter 8 00:54:58.170 : en:Chapter 9 01:00:58.864 : en:Chapter 10
[+] Скриншоты
[+] Скриншоты

Всего файлов в раздаче: 2 
01_Кин-дза-дза!.(1986).BDRip-AVC.[-=DoMiNo=-].mkv1.48 GB
02_Кин-дза-дза!.(1986).BDRip-AVC.[-=DoMiNo=-].mkv1.41 GB

Похожие раздачи по запросу - Кин-дза-дза!
2024-05-11 magnet Кин-дза-дза! (1986) BDRemux 1080p | USA Transfer 37.39 GB ↑ 1 ↓ 0

Кто качает (только для создателя раздачи и модераторов): Локальные пиры отсутствуют

Комментарии


Зарегистрируйтесь чтобы добавить комментарий
Торрент клиент
byTorrent - программа для загрузки торрент-файлов.

Скачать byTorrent.exe (1,5 МБ)

Скачать byTorrent.zip (0,6 МБ)

Поддержи torrent.by
российских рублей
(300 российских рублей это 4$)

Обратная связь rss

End game ©