↑↓torrent.by
Поиск
Логин:  Регистрация
Пароль:

Онегин (2024) WEB-DL 2160p от ExKinoRay | 4K | SDR

download Скачать торрент-файл   magnet Магнитная ссылка Размер: 15.85 GB Раздают: 0 Качают: 1 Добавлен: 2024-05-11 11:00
Пиры будут получены из сети DHT
Последний сидер был замечен 2024-05-17 23:45
Информация о фильме Название: Онегин Год выхода: 2024 Жанр: Драма, мелодрама Режиссер: Сарик Андреасян В ролях: Виктор Добронравов, Денис Прытков, Елизавета Моряк, Таня Сабинова, Алёна Хмельницкая, Алексей Гришин, Татьяна Лютаева, Владимир Вдовиченков, Ольга Тумайкина, Александр Яцко, Олег Каменщиков, Сергей Стёпин, Светлана Немоляева, Марк Андреасян, Карэн Бадалов, Денис Давыдов, Алина Гольденберг, Юрий Уткин, Наталия Лялина, Вадим Андреев, Николай Сахаров, Елизавета Карякина О фильме: Евгений Онегин живет на широкую ногу: балы, приемы, театральные премьеры и прочие развлечения, которые может предложить молодому человеку столица. Но светская жизнь давно утомила его, потому известие о болезни живущего в деревне дяди, он воспринимает, как возможность сбежать от опостылевшего света. Однако, добравшись до имения, Онегин узнает о кончине родственника, что, впрочем, не сильно расстраивает Евгения. Его финансовые дела весьма печальны, а дядя богат и других наследников у него нет. Онегин запирается в имении, сторонится соседей, которые очень скоро начинают называть его между собой чудаком. В бесцельном одиночестве Евгений живет до тех пор, пока в соседнем имении не объявляется вернувшийся из-за границы хозяин — юный, восторженный, еще не пресыщенный жизнью Ленский, который знакомит Евгения с сестрами Татьяной и Ольгой Лариными. Страна: Россия Студия: К.Б.А. Перевод: Не требуется Файл Формат: MPEG Качество: WEB-DL 2160p Видео: 3840x2160, ~ 15.3 Mбит/с, 0.092 bit/pixel, 24 Кадр/с, 8 бит Звук: Русский (AC3, 6 ch, 448 Кбит/с), (E-AC3, 6 ch, 448 Кбит/с) RUS Продолжительность: 02:20:37 Язык: Русский Субтитры: Русские (форсированные, отключаемые, не вшиты в видеоряд) Реклама: Отсутствует
[+] МИ General Unique ID : 295818859522362836020689715757904980207 (0xDE8CA3D4DE3E226B57A2E3A76A3A68EF) Complete name : G:Onegin.2024.WEB-DL.2160p.SDR..ExKinoRay.mkv Format : Matroska Format version : Version 4 File size : 15.8 GiB Duration : 2 h 20 min Overall bit rate : 16.2 Mb/s Encoded date : UTC 2024-05-10 15:27:30 Writing application : mkvmerge v56.1.0 ('My Friend') 64-bit Writing library : libebml v1.4.2 + libmatroska v1.6.4 Video ID : 1 Format : AVC Format/Info : Advanced Video Codec Format profile : High@L5.1 Format settings : CABAC / 4 Ref Frames Format settings, CABAC : Yes Format settings, Reference frames : 4 frames Codec ID : V_MPEG4/ISO/AVC Duration : 2 h 20 min Bit rate : 15.3 Mb/s Nominal bit rate : 20.0 Mb/s Width : 3 840 pixels Height : 2 160 pixels Display aspect ratio : 16:9 Frame rate mode : Constant Frame rate : 24.000 FPS Color space : YUV Chroma subsampling : 4:2:0 Bit depth : 8 bits Scan type : Progressive Bits/(Pixel*Frame) : 0.077 Stream size : 15.0 GiB (94%) Writing library : x264 core 164 Encoding settings : cabac=1 / ref=2 / deblock=1:0:0 / analyse=0x3:0x113 / me=dia / subme=6 / psy=1 / psy_rd=0.00:0.00 / mixed_ref=1 / me_range=16 / chroma_me=1 / trellis=1 / 8x8dct=1 / cqm=0 / deadzone=21,11 / fast_pskip=1 / chroma_qp_offset=0 / threads=67 / lookahead_threads=11 / sliced_threads=0 / nr=0 / decimate=1 / interlaced=0 / bluray_compat=0 / constrained_intra=0 / bframes=3 / b_pyramid=2 / b_adapt=1 / b_bias=0 / direct=1 / weightb=1 / open_gop=0 / weightp=0 / keyint=250 / keyint_min=24 / scenecut=40 / intra_refresh=0 / rc_lookahead=30 / rc=cbr / mbtree=1 / bitrate=20000 / ratetol=1.0 / qcomp=0.50 / qpmin=0 / qpmax=69 / qpstep=4 / vbv_maxrate=20000 / vbv_bufsize=26000 / nal_hrd=none / filler=0 / ip_ratio=1.00 / aq=2:0.50 Language : Russian Default : Yes Forced : No Color range : Limited Color primaries : BT.709 Transfer characteristics : BT.709 Matrix coefficients : BT.709 Audio #1 ID : 2 Format : AC-3 Format/Info : Audio Coding 3 Commercial name : Dolby Digital Codec ID : A_AC3 Duration : 2 h 20 min Bit rate mode : Constant Bit rate : 448 kb/s Channel(s) : 6 channels Channel layout : L R C LFE Ls Rs Sampling rate : 48.0 kHz Frame rate : 31.250 FPS (1536 SPF) Compression mode : Lossy Stream size : 450 MiB (3%) Language : Russian Service kind : Complete Main Default : Yes Forced : No Audio #2 ID : 3 Format : E-AC-3 Format/Info : Enhanced AC-3 Commercial name : Dolby Digital Plus Codec ID : A_EAC3 Duration : 2 h 20 min Bit rate mode : Constant Bit rate : 448 kb/s Channel(s) : 6 channels Channel layout : L R C LFE Ls Rs Sampling rate : 48.0 kHz Frame rate : 31.250 FPS (1536 SPF) Compression mode : Lossy Stream size : 450 MiB (3%) Language : Russian Service kind : Complete Main Default : No Forced : No
[+] Скриншоты
Релиз от:

Всего файлов в раздаче: 1 
Onegin.2024.WEB-DL.2160p.SDR..ExKinoRay.mkv15.85 GB

Похожие раздачи по запросу - Онегин
2024-05-09 magnet Онегин (2024) WEB-DLRip-AVC от DoMiNo & селезень 1.80 GB ↑ 1 ↓ 0
2024-05-09 magnet Онегин (2024) WEB-DLRip от MegaPeer 1.46 GB ↑ 0 ↓ 1
2024-05-09 magnet Онегин (2024) WEB-DL 1080p от ExKinoRay 3.96 GB ↑ 2 ↓ 5

Комментарии


Зарегистрируйтесь чтобы добавить комментарий
Торрент клиент
byTorrent - программа для загрузки торрент-файлов.

Скачать byTorrent.exe (1,5 МБ)

Скачать byTorrent.zip (0,6 МБ)

Поддержи torrent.by
российских рублей
(300 российских рублей это 4$)

Обратная связь rss

End game ©