↑↓torrent.by
Поиск
Логин:  Регистрация
Пароль:

Военная хроника маленькой девочки / Youjo Senki [S01 + SP] (2017) BDRip-HEVC 1080p | P, L

download Скачать торрент-файл   magnet Магнитная ссылка Размер: 14.48 GB Добавлен: 2024-05-11 17:00
Пиры будут получены из сети DHT
Последний сидер был замечен 2024-05-11 17:00
Информация о фильме Название: Военная хроника маленькой девочки (Военная хроника маленькой девочки: Сага о злой Тане) Оригинальное название: Youjo Senki (Saga of Tanya the Evil) Год выхода: 2017 Жанр: Экшн, война, сэйнэн, фэнтези Режиссер: Ютака Уэмура Роли озвучивали: Аой Юки, Саори Хаями, Синъитиро Мики, Тэссё Гэнда, Хотю Оцука, Нобуо Тобита, Дайки Хамано, Юсукэ Кобаяси, Дзюн Касама, Дайти Хаяси, Такая Хаси, Рёкан Коянаги, Кэнъю Хориути, Харука Томацу Описание: Где-то в параллельном мире идет война. В первых рядах, среди суровых мужчин, командующая немного не мало целым отрядом, затесалась юная белокурая девушка по имени Таня Дегручова. Ну, или, по крайней мере, так кажется со стороны. Мало кто знает, что на самом деле она — это он. Еще будучи в Японии очередным представителем офисного планктона, пускай и очень успешным, «повезло» Ему натолкнутся на нечто, называющего себя Богом. А тот взял и переродил Его в виде той самой девушки, да еще в ином мире, погрязшем в войне. Теперь у Него только одна цель — любыми средствами добиться не меньшего положения, чем Он занимал у себя на родине. Страна: Япония Студия: NUT Продолжительность: 13 x ~ 00:25:00, 13 x ~ 00:02:00 Перевод: Профессиональный многоголосый Студийная Банда AD (Esther, Demetra, Торгиль, BalFor, Cuba77, Влад Дуров) Любительский многоголосый AniLibria (Hector, LaSiK, Чильва-чан) Любительский многоголосый AniFilm (Octav, Derenn, Баяна) Любительский многоголосый SHIZA Project (Mamoru, RJ Pandora, Abe, Berial, Dancel)Файл Формат: MKV Качество: BDRip 1080p | Видео: HEVC, ~ 5508 Кбит/с, 1920x1080, 10 бит Сезон 1: Аудио #1: AAC LC, 2 ch, 48 kHz, ~ 184 kbps | Русский | Студийная Банда AD (Esther, Demetra, Торгиль, BalFor, Cuba77, Влад Дуров) Аудио #2: AAC LC, 2 ch, 48 kHz, 224 kbps | Русский | AniLibria (Hector, LaSiK, Чильва-чан) Аудио #3: AAC LC, 2 ch, 48 kHz, ~ 165 kbps | Русский | AniFilm (Octav, Derenn, Баяна) Аудио #4: AAC LC, 2 ch, 48 kHz, 192 kbps | Русский | SHIZA Project (Mamoru, RJ Pandora, Abe, Berial, Dancel) Аудио #5: FLAC, 3 ch, 48 kHz, 16 bit, ~ 736 kbps | Японский | Оригинал Субтитры #1: Русские, ASS, Надписи | GMC Субтитры #2: Русские, ASS, Полные | GMC Субтитры #3: Русские, ASS, Полные | YakuSub Studio Specials: Аудио #1: AAC LC, 2 ch, 48 kHz, 192 kbps | Русский | SHIZA Project (Mamoru, RJ Pandora, Abe, Berial, Dancel) Аудио #2: FLAC, 2 ch, 48 kHz, 16 bit, ~ 413 kbps | Японский | Оригинал Субтитры #1: Русские, ASS, Полные | GMC Автор релиза: EvraGo Благодарность MERDOK за субтитры Реклама отсутствует. Чистый опенинг и эндинг
[+] MediaInfoGeneral Unique ID : 175787635517481442824379296575335208002 (0x843F77947EE6A9F65D8E6755B8809442) Complete name : G:РаздачиГотовые Youjo Senki S01 Youjo Senki 01 .mkv Format : Matroska Format version : Version 4 File size : 1.16 GiB Duration : 23 min 40 s Overall bit rate mode : Variable Overall bit rate : 7 033 kb/s Frame rate : 23.976 FPS Encoded date : 2024-05-04 09:34:25 UTC Writing application : mkvmerge v84.0 ('Sleeper') 64-bit Writing library : libebml v1.4.5 + libmatroska v1.7.1 Attachments : Tahoma (Regular).ttf / Times New Roman (Bold).ttf / Times New Roman (Regular).ttf / Trebuchet MS (Bold Italic).ttf / Trebuchet MS (Bold).ttf / Trebuchet MS (Regular).ttf Video ID : 1 Format : HEVC Format/Info : High Efficiency Video Coding Format profile : Main 10@L4.1@High Codec ID : V_MPEGH/ISO/HEVC Duration : 23 min 40 s Bit rate : 5 508 kb/s Width : 1 920 pixels Height : 1 080 pixels Display aspect ratio : 16:9 Frame rate mode : Constant Frame rate : 23.976 (24000/1001) FPS Color space : YUV Chroma subsampling : 4:2:0 Bit depth : 10 bits Bits/(Pixel*Frame) : 0.111 Stream size : 933 MiB (78%) Writing library : x265 2.8+4-g0ad419482+18: Yuuki 10bit Encoding settings : rc=crf / crf=14.5000 / qcomp=0.65 / qpstep=4 / vbv-maxrate=38000 / vbv-bufsize=45000 / vbv-init=0.9 / crf-max=0.0 / crf-min=0.0 / aq-mode=1 / aq-strength=0.80 / cbqpoffs=-4 / crqpoffs=-4 / ipratio=1.30 / pbratio=1.15 / psy-rd=1.80 / psy-rdoq=1.50 / deblock=0:0 / ref=4 / bframes=6 / b-adapt=2 / bframe-bias=-10 / b-pyramid / b-intra / weightp / weightb / min-keyint=1 / max-keyint=360 / rc-lookahead=80 / gop-lookahead=0 / scenecut=40 / radl=0 / max-cu-size=32 / min-cu-size=8 / me=3 / subme=3 / merange=44 / rdoq-level=2 / rd=5 / rdpenalty=0 / ----- / cutree / no-sao / no-rect / no-amp / no-open-gop / wpp / no-pmode / no-pme / no-psnr / no-ssim / nr-intra=0 / nr-inter=0 / no-constrained-intra / no-strong-intra-smoothing / max-tu-size=32 / tu-inter-depth=2 / tu-intra-depth=2 / limit-tu=4 / qg-size=8 / qpmax=69 / qpmin=0 / ----- / cpuid=1111039 / frame-threads=2 / numa-pools=6 / log-level=2 / input-csp=1 / input-res=1920x1080 / interlace=0 / level-idc=0 / high-tier=1 / uhd-bd=0 / no-allow-non-conformance / no-repeat-headers / no-aud / no-hrd / info / hash=0 / no-temporal-layers / lookahead-slices=4 / no-intra-refresh / dynamic-rd=0.00 / no-ssim-rd / signhide / no-tskip / max-merge=3 / limit-refs=2 / limit-modes / temporal-mvp / no-analyze-src-pics / no-sao-non-deblock / no-early-skip / rskip / no-fast-intra / no-tskip-fast / no-cu-lossless / no-splitrd-skip / no-rd-refine / no-lossless / zone-count=0 / no-strict-cbr / no-rc-grain / no-const-vbv / sar=0 / overscan=0 / videoformat=5 / range=0 / colorprim=2 / transfer=2 / colormatrix=1 / chromaloc=0 / display-window=0 / max-cll=0,0 / min-luma=0 / max-luma=1023 / log2-max-poc-lsb=8 / vui-timing-info / vui-hrd-info / slices=1 / no-opt-qp-pps / no-opt-ref-list-length-pps / no-multi-pass-opt-rps / scenecut-bias=0.05 / no-opt-cu-delta-qp / no-aq-motion / no-hdr / no-hdr-opt / no-dhdr10-opt / no-idr-recovery-sei / analysis-reuse-level=5 / scale-factor=0 / refine-intra=0 / refine-inter=0 / refine-mv=0 / no-limit-sao / ctu-info=0 / no-lowpass-dct / refine-mv-type=0 / copy-pic=1 / max-ausize-factor=1.0 / no-dynamic-refine / no-single-sei Default : Yes Forced : No Color range : Limited Matrix coefficients : BT.709 Audio #1 ID : 2 Format : AAC LC Format/Info : Advanced Audio Codec Low Complexity Codec ID : A_AAC-2 Duration : 23 min 40 s Bit rate : 184 kb/s Channel(s) : 2 channels Channel layout : L R Sampling rate : 48.0 kHz Frame rate : 46.875 FPS (1024 SPF) Compression mode : Lossy Stream size : 31.2 MiB (3%) Title : Студийная Банда AD Language : Russian Default : Yes Forced : No Audio #2 ID : 3 Format : AAC LC Format/Info : Advanced Audio Codec Low Complexity Codec ID : A_AAC-2 Duration : 23 min 40 s Bit rate : 224 kb/s Channel(s) : 2 channels Channel layout : L R Sampling rate : 48.0 kHz Frame rate : 46.875 FPS (1024 SPF) Compression mode : Lossy Stream size : 37.9 MiB (3%) Title : AniLibria Language : Russian Default : No Forced : No Audio #3 ID : 4 Format : AAC LC Format/Info : Advanced Audio Codec Low Complexity Codec ID : A_AAC-2 Duration : 23 min 40 s Bit rate : 165 kb/s Channel(s) : 2 channels Channel layout : L R Sampling rate : 48.0 kHz Frame rate : 46.875 FPS (1024 SPF) Compression mode : Lossy Stream size : 27.9 MiB (2%) Title : AniFilm Language : Russian Default : No Forced : No Audio #4 ID : 5 Format : AAC LC Format/Info : Advanced Audio Codec Low Complexity Codec ID : A_AAC-2 Duration : 23 min 40 s Bit rate : 192 kb/s Channel(s) : 2 channels Channel layout : L R Sampling rate : 48.0 kHz Frame rate : 46.875 FPS (1024 SPF) Compression mode : Lossy Stream size : 32.5 MiB (3%) Title : SHIZA Project Language : Russian Default : No Forced : No Audio #5 ID : 6 Format : FLAC Format/Info : Free Lossless Audio Codec Codec ID : A_FLAC Duration : 23 min 40 s Bit rate mode : Variable Bit rate : 736 kb/s Channel(s) : 3 channels Channel layout : L R LFE Sampling rate : 48.0 kHz Frame rate : 11.719 FPS (4096 SPF) Bit depth : 16 bits Compression mode : Lossless Stream size : 125 MiB (10%) Writing library : libFLAC 1.2.1 (2007-09-17) Language : Japanese Default : No Forced : No MD5 of the unencoded conten : 320559B6D356FE0478815CCAE5533376 Text #1 ID : 7 Format : ASS Codec ID : S_TEXT/ASS Codec ID/Info : Advanced Sub Station Alpha Duration : 19 min 40 s Bit rate : 17 b/s Frame rate : 0.015 FPS Count of elements : 18 Compression mode : Lossless Stream size : 2.50 KiB (0%) Title : GMC Language : Russian Default : Yes Forced : No Text #2 ID : 8 Format : ASS Codec ID : S_TEXT/ASS Codec ID/Info : Advanced Sub Station Alpha Duration : 22 min 35 s Bit rate : 151 b/s Frame rate : 0.241 FPS Count of elements : 326 Compression mode : Lossless Stream size : 25.1 KiB (0%) Title : GMC Language : Russian Default : No Forced : No Text #3 ID : 9 Format : ASS Codec ID : S_TEXT/ASS Codec ID/Info : Advanced Sub Station Alpha Duration : 22 min 35 s Bit rate : 163 b/s Frame rate : 0.240 FPS Count of elements : 326 Compression mode : Lossless Stream size : 27.1 KiB (0%) Title : YakuSub Studio Language : Russian Default : No Forced : No Menu 00:00:00.000 : en:Avant 00:03:12.984 : en:A Part 00:13:15.962 : en:B Part
[+] Порядок просмотра01. Военная хроника маленькой девочки - ТВ (12 эп.), адаптация ранобэ, 2017 02. Колдунья в погонах (фильм) - п/ф, продолжение, 2019 03. Колдунья в погонах ONA - Web (1 эп.), дополнение, 2021 04. Военная хроника маленькой девочки - ТВ, продолжение, 2025
[+] Список серийСезон 1: 01. Демон Рейна / The Devil of the Rhine 02. Пролог / Prologue 03. Так хочет Бог / Deus Vult 04. Студенческая жизнь / Campus Life 05. Мой первый батальон / My First Battalion 06. Начало безумия / Beginning of Madness 07. Битва за Фьорд / The Battle of the Fjord 08. Испытание огнем / Trial by Fire 09. Приготовления к продвижению / Preparations for Advance 10. Путь к победе / The Path to Victory 11. Сопротивление / Resistance 12. Как использовать победу / How to Use a Victory Specials: Мини-эпизод 00 - Мини-эпизод 12
[+] Скриншоты

Всего файлов в раздаче: 25 
Special\[VCB-Studio] Youjo Senki SP00 [BDRip 1080p x265 FLAC].mkv56.80 MB
Special\[VCB-Studio] Youjo Senki SP01 [BDRip 1080p x265 FLAC].mkv78.00 MB
Special\[VCB-Studio] Youjo Senki SP02 [BDRip 1080p x265 FLAC].mkv81.93 MB
Special\[VCB-Studio] Youjo Senki SP03 [BDRip 1080p x265 FLAC].mkv75.88 MB
Special\[VCB-Studio] Youjo Senki SP04 [BDRip 1080p x265 FLAC].mkv71.18 MB
Special\[VCB-Studio] Youjo Senki SP05 [BDRip 1080p x265 FLAC].mkv62.12 MB
Special\[VCB-Studio] Youjo Senki SP06 [BDRip 1080p x265 FLAC].mkv82.58 MB
Special\[VCB-Studio] Youjo Senki SP07 [BDRip 1080p x265 FLAC].mkv73.71 MB
Special\[VCB-Studio] Youjo Senki SP08 [BDRip 1080p x265 FLAC].mkv74.43 MB
Special\[VCB-Studio] Youjo Senki SP09 [BDRip 1080p x265 FLAC].mkv77.30 MB
Показать все файлы

Похожие раздачи по запросу - Военная
2024-05-11 magnet Военная хроника маленькой девочки / Youjo Senki Movie (2019) BDRip-HEVC 1080p | L 4.92 GB ↑ 0 ↓ 0
2024-04-29 magnet Книжная ceрия - «Военная фантастика» [307 книг] (2011-2024) FB2 596.39 MB ↑ 0 ↓ 0
2024-04-29 magnet Книжная ceрия - «Военная боевая фантастика» [76 книг] (2021-2024) FB2 157.23 MB ↑ 0 ↓ 0
2024-04-23 magnet Серия - «Военная боевая фантастика» [53 книги] (2021-2024) FB2 112.37 MB ↑ 0 ↓ 0
2024-03-03 magnet Военная приёмка. КРЭТ [01-01 из 02] (2024) HDTV 1080p от MAGNAT 1.26 GB ↑ 0 ↓ 0
2024-02-12 magnet Военная приёмка. Спецназ Кубы (2024) HDTV 1080p от MAGNAT 1.27 GB ↑ 0 ↓ 0
2024-01-28 magnet Военная приёмка. Ту-214. Самолет для Президента и не только (2024) HDTV 1080p от MAGNAT 1.43 GB ↑ 0 ↓ 0

Кто качает (только для создателя раздачи и модераторов): Локальные пиры отсутствуют

Комментарии


Зарегистрируйтесь чтобы добавить комментарий
Торрент клиент
byTorrent - программа для загрузки торрент-файлов.

Скачать byTorrent.exe (1,5 МБ)

Скачать byTorrent.zip (0,6 МБ)

Поддержи torrent.by
российских рублей
(300 российских рублей это 4$)

Обратная связь rss

End game ©