↑↓torrent.by
Поиск
Логин:  Регистрация
Пароль:

Военная хроника маленькой девочки / Youjo Senki Movie (2019) BDRip-HEVC 1080p | L

download Скачать торрент-файл   magnet Магнитная ссылка Размер: 4.92 GB Добавлен: 2024-05-11 17:00
Пиры будут получены из сети DHT
Последний сидер был замечен 2024-05-12 21:39
Информация о фильме Название: Военная хроника маленькой девочки (Колдунья в погонах) (Военная хроника маленькой девочки: Сага о злой Тане) Оригинальное название: Youjo Senki (Saga of Tanya the Evil) (Gekijouban Youjo Senki) Год выхода: 2019 Жанр: Экшн, война, сэйнэн, фэнтези Режиссер: Ютака Уэмура Роли озвучивали: Аой Юки, Саори Хаями, Синъитиро Мики, Тэссё Гэнда, Хотю Оцука, Нобуо Тобита, Дайки Хамано, Юсукэ Кобаяси, Дзюн Касама, Дайти Хаяси, Такая Хаси, Рёкан Коянаги, Кэнъю Хориути, Харука Томацу Описание: 1926 год. 203-й магический батальон Имперской армии во главе с майором Таней Дегуршаф, возвращаются на родину после окончания успешной кампании по разгрому остатков армии Республики на Южном континенте. Однако ожидаемого празднования успешного завершения миссии не случилось. В штаб поступает сообщение о массовой мобилизации вблизи границы с Российской Федерацией - солдатам Империи пора готовиться к новым сражениям. В это же время многонациональная армия Союзного Королевства нарушает территориальную целостность Российской Федерации. Враг моего врага - мой друг. Вот только Таня ещё не знает, что одним из солдат Союзного Королевства является Мэри Сью, поклявшаяся отомстить Империи за смерть своего отца... Страна: Япония Студия: NUT Продолжительность: 01:38:00 Перевод: Любительский многоголосый AniDUB (Trina_D, Jade, Sergei Vasya, RiZZ_fisher, Ket) Любительский многоголосый AniLibria (Silv, HectoR, Gomer, MyAska, Narea, Malevich) Любительский многоголосый AniFilm (hAl, Kawas, Kreol, IIgoRek, Constantine, Octav, Баяна, Mao, Литария Теннер) Любительский многоголосый SHIZA Project (Daelit, Pandora, Dancel, Mamoru, Abe)Файл Формат: MKV Качество: BDRip 1080p | Видео: HEVC, 4664 Кбит/с, 1920x1080, 10 бит Аудио #1: AAC LC, 2 ch, 48 kHz, 192 kbps | Русский | AniDUB (Trina_D, Jade, Sergei Vasya, RiZZ_fisher, Ket) Аудио #2: AAC LC, 2 ch, 48 kHz, 192 kbps | Русский | AniLibria (Silv, HectoR, Gomer, MyAska, Narea, Malevich) Аудио #3: AAC LC, 2 ch, 48 kHz, 320 kbps | Русский | AniFilm (hAl, Kawas, Kreol, IIgoRek, Constantine, Octav, Баяна, Mao, Литария Теннер) Аудио #4: AC-3, 2 ch, 48 kHz, 384 kbps | Русский | SHIZA Project (Daelit, Pandora, Dancel, Mamoru, Abe) Аудио #5: FLAC, 2 ch, 48 kHz, 24 bit, 1390 kbps | Японский | Оригинал Субтитры #1: Русские, ASS, Надписи | GMC Субтитры #2: Русские, ASS, Полные | GMC Субтитры #3: Русские, ASS, Полные | 2nd Division Субтитры #4: Русские, ASS, Полные | YakuSub Studio Автор релиза: EvraGo Благодарность Adventurer_Kun, Рикошет, antiBILLotic за субтитры Реклама отсутствует. Чистый опенинг и эндинг
[+] MediaInfoGeneral Unique ID : 74516530798257262687812517933847268692 (0x380F5C9F07F4FEAE83F04B8BE2B5CD54) Complete name : G:РаздачиГотовые Gekijouban Youjo Senki .mkv Format : Matroska Format version : Version 4 File size : 4.92 GiB Duration : 1 h 38 min Overall bit rate mode : Variable Overall bit rate : 7 149 kb/s Frame rate : 23.976 FPS Encoded date : 2024-05-05 07:59:55 UTC Writing application : mkvmerge v84.0 ('Sleeper') 64-bit Writing library : libebml v1.4.5 + libmatroska v1.7.1 Attachments : v_RedSt0.3.t / 11621.ttf / Open Sans Semibold.ttf / v_BloodyMurder BB_v1.0.ttf / v_CCPulp Fiction (Medium).ttf / v_MightyZeo2.0_v1.07.ttf / trebuc.ttf / trebucbd.ttf / trebucit.ttf / Montresor.ttf Video ID : 1 Format : HEVC Format/Info : High Efficiency Video Coding Format profile : Main 10@L4@Main Codec ID : V_MPEGH/ISO/HEVC Duration : 1 h 38 min Bit rate : 4 664 kb/s Width : 1 920 pixels Height : 1 080 pixels Display aspect ratio : 16:9 Frame rate mode : Constant Frame rate : 23.976 (24000/1001) FPS Color space : YUV Chroma subsampling : 4:2:0 Bit depth : 10 bits Bits/(Pixel*Frame) : 0.094 Stream size : 3.21 GiB (65%) Writing library : x265 3.5+98-g3449bc85e+20-gc1a540a56: Kyouko 10bit+8bit+12bit Encoding settings : rc=crf / crf=14.5000 / qcomp=0.70 / qpstep=4 / stats-write=0 / stats-read=0 / qscale-mode=0 / no-lossless / no-cu-lossless / aq-mode=3 / no-limit-aq1 / aq-strength=0.90 / aq-bias-strength=1.00 / limit-aq1-strength=1.00 / cbqpoffs=-2 / crqpoffs=-2 / ipratio=1.40 / pbratio=1.20 / psy-rd=2.50 / psy-rdoq=1.20 / psy-bscale=300 / psy-pscale=256 / psy-iscale=96 / deblock=-1:-1 / ref=5 / limit-refs=0 / no-limit-modes / bframes=16 / b-adapt=2 / bframe-bias=0 / b-pyramid / b-intra / weightp / weightb / min-keyint=1 / max-keyint=360 / rc-lookahead=120 / gop-lookahead=0 / scenecut=40 / hist-scenecut=0 / radl=0 / max-cu-size=32 / min-cu-size=8 / me=3 / subme=7 / merange=32 / rdoq-level=1 / rd=5 / rdpenalty=0 / dynamic-rd=0.00 / rd-refine / refine-tolerance=1.500 / ----- / cutree / cutree-strength=1.50 / cutree-minqpoffs=-69.00 / cutree-maxqpoffs=69.00 / no-sao / rect / no-amp / no-open-gop / wpp / no-pmode / no-pme / no-psnr / no-ssim / nr-intra=0 / nr-inter=0 / no-constrained-intra / no-strong-intra-smoothing / max-tu-size=16 / tu-inter-depth=4 / tu-intra-depth=4 / limit-tu=0 / qg-size=32 / qpmax=69 / qpmin=0 / ----- / cpuid=1111039 / frame-threads=4 / numa-pools=+ / log-level=2 / input-csp=1 / input-res=1920x1080 / interlace=0 / level-idc=0 / high-tier=1 / uhd-bd=0 / no-allow-non-conformance / no-repeat-headers / no-aud / no-hrd / info / hash=0 / no-temporal-layers / lookahead-slices=0 / no-splice / no-intra-refresh / no-ssim-rd / signhide / tskip / max-merge=5 / temporal-mvp / no-frame-dup / no-hme / no-analyze-src-pics / no-sao-non-deblock / selective-sao=0 / no-early-skip / no-rskip / no-fast-intra / no-tskip-fast / no-splitrd-skip / zone-count=0 / no-strict-cbr / no-rc-grain / no-const-vbv / sar=0 / overscan=0 / videoformat=5 / range=0 / colorprim=1 / transfer=1 / colormatrix=1 / chromaloc=0 / display-window=0 / cll=0,0 / min-luma=0 / max-luma=1023 / log2-max-poc-lsb=8 / vui-timing-info / vui-hrd-info / slices=1 / no-opt-qp-pps / no-opt-ref-list-length-pps / no-multi-pass-opt-rps / scenecut-bias=0.05 / hist-threshold=0.03 / no-opt-cu-delta-qp / no-aq-motion / no-hdr10 / no-hdr10-opt / no-dhdr10-opt / no-idr-recovery-sei / analysis-reuse-level=0 / analysis-save-reuse-level=0 / analysis-load-reuse-level=0 / scale-factor=0 / refine-intra=0 / refine-inter=0 / refine-mv=1 / refine-ctu-distortion=0 / no-limit-sao / ctu-info=0 / no-lowpass-dct / refine-analysis-type=0 / copy-pic=1 / max-ausize-factor=1.0 / no-dynamic-refine / no-single-sei / no-hevc-aq / no-svt / no-field / qp-adaptation-range=1.00 / scenecut-aware-qp=0conformance-window-offsets / right=0 / bottom=0 / decoder-max-rate=0 / no-vbv-live-multi-pass Language : Japanese Default : Yes Forced : No Color range : Limited Color primaries : BT.709 Transfer characteristics : BT.709 Matrix coefficients : BT.709 Audio #1 ID : 2 Format : AAC LC Format/Info : Advanced Audio Codec Low Complexity Codec ID : A_AAC-2 Duration : 1 h 38 min Bit rate : 192 kb/s Channel(s) : 2 channels Channel layout : L R Sampling rate : 48.0 kHz Frame rate : 46.875 FPS (1024 SPF) Compression mode : Lossy Stream size : 135 MiB (3%) Title : AniDUB Language : Russian Default : Yes Forced : No Audio #2 ID : 3 Format : AAC LC Format/Info : Advanced Audio Codec Low Complexity Codec ID : A_AAC-2 Duration : 1 h 38 min Bit rate : 192 kb/s Channel(s) : 2 channels Channel layout : L R Sampling rate : 48.0 kHz Frame rate : 46.875 FPS (1024 SPF) Compression mode : Lossy Stream size : 135 MiB (3%) Title : AniLibria Language : Russian Default : No Forced : No Audio #3 ID : 4 Format : AAC LC Format/Info : Advanced Audio Codec Low Complexity Codec ID : A_AAC-2 Duration : 1 h 38 min Bit rate : 320 kb/s Channel(s) : 2 channels Channel layout : L R Sampling rate : 48.0 kHz Frame rate : 46.875 FPS (1024 SPF) Compression mode : Lossy Stream size : 225 MiB (4%) Title : AniFilm Language : Russian Default : No Forced : No Audio #4 ID : 5 Format : AC-3 Format/Info : Audio Coding 3 Commercial name : Dolby Digital Codec ID : A_AC3 Duration : 1 h 38 min Bit rate mode : Constant Bit rate : 384 kb/s Channel(s) : 2 channels Channel layout : L R Sampling rate : 48.0 kHz Frame rate : 31.250 FPS (1536 SPF) Compression mode : Lossy Stream size : 270 MiB (5%) Title : SHIZA Project Language : Russian Service kind : Complete Main Default : No Forced : No Audio #5 ID : 6 Format : FLAC Format/Info : Free Lossless Audio Codec Codec ID : A_FLAC Duration : 1 h 38 min Bit rate mode : Variable Bit rate : 1 390 kb/s Channel(s) : 2 channels Channel layout : L R Sampling rate : 48.0 kHz Frame rate : 11.719 FPS (4096 SPF) Bit depth : 24 bits Compression mode : Lossless Stream size : 979 MiB (19%) Writing library : libFLAC 1.3.2 (2017-01-01) Language : Japanese Default : No Forced : No MD5 of the unencoded conten : 24D4B8BEB2B1C40B28D2858B63B019C0 Text #1 ID : 7 Format : ASS Codec ID : S_TEXT/ASS Codec ID/Info : Advanced Sub Station Alpha Duration : 1 h 34 min Bit rate : 17 b/s Frame rate : 0.023 FPS Count of elements : 130 Compression mode : Lossless Stream size : 12.2 KiB (0%) Title : GMC Language : Russian Default : Yes Forced : No Text #2 ID : 8 Format : ASS Codec ID : S_TEXT/ASS Codec ID/Info : Advanced Sub Station Alpha Duration : 1 h 34 min Bit rate : 172 b/s Frame rate : 0.252 FPS Count of elements : 1434 Compression mode : Lossless Stream size : 120 KiB (0%) Title : GMC Language : Russian Default : No Forced : No Text #3 ID : 9 Format : ASS Codec ID : S_TEXT/ASS Codec ID/Info : Advanced Sub Station Alpha Duration : 1 h 34 min Bit rate : 174 b/s Frame rate : 0.249 FPS Count of elements : 1415 Compression mode : Lossless Stream size : 121 KiB (0%) Title : 2nd Division Language : Russian Default : No Forced : No Text #4 ID : 10 Format : ASS Codec ID : S_TEXT/ASS Codec ID/Info : Advanced Sub Station Alpha Duration : 1 h 34 min Bit rate : 172 b/s Frame rate : 0.252 FPS Count of elements : 1434 Compression mode : Lossless Stream size : 120 KiB (0%) Title : YakuSub Studio Language : Russian Default : No Forced : No Menu 00:00:00.000 : en:Chapter 01 00:11:33.359 : en:Chapter 02 00:24:24.672 : en:Chapter 03 00:39:54.392 : en:Chapter 04 01:01:09.416 : en:Chapter 05 01:20:18.397 : en:Chapter 06 01:30:31.384 : en:Chapter 07 01:32:01.391 : en:Chapter 08 01:35:05.450 : en:Chapter 09
[+] Порядок просмотра01. Военная хроника маленькой девочки - ТВ (12 эп.), адаптация ранобэ, 2017 02. Колдунья в погонах (фильм) - п/ф, продолжение, 2019 03. Колдунья в погонах ONA - Web (1 эп.), дополнение, 2021 04. Военная хроника маленькой девочки - ТВ, продолжение, 2025
[+] Скриншоты

Всего файлов в раздаче: 1 
[VCB-Studio] Gekijouban Youjo Senki [BDRip 1080p x265 FLAC].mkv4.92 GB

Похожие раздачи по запросу - Военная
2024-05-11 magnet Военная хроника маленькой девочки / Youjo Senki [S01 + SP] (2017) BDRip-HEVC 1080p | P, L 14.48 GB ↑ 0 ↓ 0
2024-04-29 magnet Книжная ceрия - «Военная фантастика» [307 книг] (2011-2024) FB2 596.39 MB ↑ 0 ↓ 0
2024-04-29 magnet Книжная ceрия - «Военная боевая фантастика» [76 книг] (2021-2024) FB2 157.23 MB ↑ 0 ↓ 0
2024-04-23 magnet Серия - «Военная боевая фантастика» [53 книги] (2021-2024) FB2 112.37 MB ↑ 0 ↓ 0
2024-03-03 magnet Военная приёмка. КРЭТ [01-01 из 02] (2024) HDTV 1080p от MAGNAT 1.26 GB ↑ 0 ↓ 0
2024-02-12 magnet Военная приёмка. Спецназ Кубы (2024) HDTV 1080p от MAGNAT 1.27 GB ↑ 0 ↓ 0
2024-01-28 magnet Военная приёмка. Ту-214. Самолет для Президента и не только (2024) HDTV 1080p от MAGNAT 1.43 GB ↑ 0 ↓ 0

Кто качает (только для создателя раздачи и модераторов): Локальные пиры отсутствуют

Комментарии


Зарегистрируйтесь чтобы добавить комментарий
Торрент клиент
byTorrent - программа для загрузки торрент-файлов.

Скачать byTorrent.exe (1,5 МБ)

Скачать byTorrent.zip (0,6 МБ)

Поддержи torrent.by
российских рублей
(300 российских рублей это 4$)

Обратная связь rss

End game ©