↑↓torrent.by
Поиск
Логин:  Регистрация
Пароль:

Чайна О'Брайен / China O'Brien (1988) BDRip | L1

download Скачать торрент-файл   magnet Магнитная ссылка Размер: 1.47 GB Добавлен: 2024-05-11 17:00
Пиры будут получены из сети DHT
Последний сидер был замечен 2024-05-19 20:01
Страна: США Жанр: боевик Год выпуска: 1990 Продолжительность: 01:30:33 Перевод 1: Одноголосый закадровый Ужастик Перевод 2: Одноголосый закадровый Петербуржец Перевод 3: Одноголосый закадровый женский-Action studio Субтитры: нет Режиссер: Роберт Клауз / Robert Clouse В ролях: Синтия Ротрок, Ричард Нортон, Кит Кук, Даг Райт, Найджел, Артуро Ривера, Скотт МакМиллан, Патрик Адамсон, Дэвид Блэкуэлл, Чад Уолкер Описание: После инцидента с применением огнестрельного оружия, Чайна О'Брайен оставляет службу в полиции и возвращается в свой родной провинциальный городок Бивер-Крик. Однако, за время её отсутствия город сильно изменился. Шериф Джон О'Брайен уже не в силах справиться с местными преступными воротилами - коррупция проникла как в полицию, так и в систему судопроизводства. Несговорчивого шерифа вместе с его помощником устраняют, и тогда Чайна решает встать на место отца и очистить город от криминала. На помощь к ней приходят друг детства Мэтт Конрой, а также индеец Дакота, у которого есть личные счёты к главе преступного сообщества. Релиз от: Райдэн Исходник: Чайна О'Брайен.1988.BDRemux.1080p.R.G. Goldenshara Качество видео: BDRip Формат видео: AVI Видео: 720x384 (1.88:1), 23.976 fps, XviD build 73 ~1726 kbps avg, 0.26 bit/pixel Аудио 1: 48 kHz, AC3 Dolby Digital, 2 ch, 192 kbps - Петербуржец Аудио 2: 48 kHz, AC3 Dolby Digital, 2 ch, 192 kbps - Ужастик Аудио 3: 48 kHz, AC3 Dolby Digital, 2 ch, 192 kbps - женский
[+] MediaInfo General Complete name : C:ИгрыChina O'Brien.1988.BDRip.Райдэн.avi Format : AVI Format/Info : Audio Video Interleave Format settings : BitmapInfoHeader / WaveFormatEx File size : 1.47 GiB Duration : 1 h 30 min Overall bit rate : 2 319 kb/s Frame rate : 23.976 FPS Writing application : VirtualDubMod 1.5.10.3 | www.virtualdub-fr.org || (build 2550/release) Writing library : VirtualDubMod build 2550/release Video ID : 0 Format : MPEG-4 Visual Format profile : Advanced Simple@L5 Format settings : BVOP1 / Custom Matrix Format settings, BVOP : 1 Format settings, QPel : No Format settings, GMC : No warppoints Format settings, Matrix : Custom Codec ID : XVID Codec ID/Hint : XviD Duration : 1 h 30 min Bit rate : 1 727 kb/s Width : 720 pixels Height : 384 pixels Display aspect ratio : 1.85:1 Frame rate : 23.976 (24000/1001) FPS Color space : YUV Chroma subsampling : 4:2:0 Bit depth : 8 bits Scan type : Progressive Compression mode : Lossy Bits/(Pixel*Frame) : 0.261 Stream size : 1.09 GiB (74%) Writing library : XviD 73 Audio #1 ID : 1 Format : AC-3 Format/Info : Audio Coding 3 Commercial name : Dolby Digital Codec ID : 2000 Duration : 1 h 29 min Bit rate mode : Constant Bit rate : 192 kb/s Channel(s) : 2 channels Channel layout : L R Sampling rate : 48.0 kHz Frame rate : 31.250 FPS (1536 SPF) Compression mode : Lossy Stream size : 123 MiB (8%) Alignment : Split across interleaves Interleave, duration : 42 ms (1.01 video frame) Interleave, preload duration : 500 ms Service kind : Complete Main Audio #2 ID : 2 Format : AC-3 Format/Info : Audio Coding 3 Commercial name : Dolby Digital Codec ID : 2000 Duration : 1 h 30 min Bit rate mode : Constant Bit rate : 192 kb/s Channel(s) : 2 channels Channel layout : L R Sampling rate : 48.0 kHz Frame rate : 31.250 FPS (1536 SPF) Compression mode : Lossy Stream size : 124 MiB (8%) Alignment : Split across interleaves Interleave, duration : 42 ms (1.00 video frame) Interleave, preload duration : 500 ms Service kind : Complete Main Audio #3 ID : 3 Format : AC-3 Format/Info : Audio Coding 3 Commercial name : Dolby Digital Codec ID : 2000 Duration : 1 h 29 min Bit rate mode : Constant Bit rate : 192 kb/s Channel(s) : 2 channels Channel layout : L R Sampling rate : 48.0 kHz Frame rate : 31.250 FPS (1536 SPF) Compression mode : Lossy Stream size : 123 MiB (8%) Alignment : Split across interleaves Interleave, duration : 42 ms (1.01 video frame) Interleave, preload duration : 500 ms Service kind : Complete Main
[+] Скриншоты

Всего файлов в раздаче: 1 
China O'Brien.1988.BDRip.Райдэн.avi1.47 GB

Комментарии


Зарегистрируйтесь чтобы добавить комментарий
Торрент клиент
byTorrent - программа для загрузки торрент-файлов.

Скачать byTorrent.exe (1,5 МБ)

Скачать byTorrent.zip (0,6 МБ)

Поддержи torrent.by
российских рублей
(300 российских рублей это 4$)

Обратная связь rss

End game ©