↑↓torrent.by
Поиск
Логин:  Регистрация
Пароль:

Бесконечность / Infinite (2021) BDRip 720p | D, P, A, L2

download Скачать торрент-файл   magnet Магнитная ссылка Размер: 6.97 GB Добавлен: 2024-05-11 17:00
Пиры будут получены из сети DHT
Последний сидер был замечен вчера в 22:25
Информация о фильме Название: Бесконечность Оригинальное название: Infinite Год выхода: 2021 Жанр: фантастика, триллер Режиссер: Антуан Фукуа В ролях: Марк Уолберг, Дилан О Брайен, Софи Куксон, Уоллис Дэй, Джейсон Манцукас, Чиветел Эджиофор, Руперт Френд, Лили Рич, Тоби Джонс, Лиз Карр Описание: Эван Майклс страдает от необычного недуга: он в деталях помнит всё, что с ним происходило в двух прошлых жизнях. В поисках ответов Эван обнаруживает древнее тайное общество «Когномина», члены которого, так же как и он, помнят о своих прошлых жизнях. Не понаслышке знакомые с историей, они на протяжении веков контролируют развитие человечества, направляя его в нужную сторону. Эван понимает, что обязан вступить в ряды «Когномины». Страна: США Продолжительность: 01:46:20 Перевод: Дублированный, многоголосый профессиональный, двухголосый любительский, авторский Субтитры: Русские (forced х2, full х2), украинские (forced), английские, французские .srt, немецкие, финские, датские, норвежские, шведские, испанские, китайские .pgs Файл Формат: Matroska Качество: BDRip 720p Видео: AVC/H.264, 1280x536, ~6279 Kbps Аудио 1: E-AC3, 6 ch, 448 Kbps - Русский (Dub, Кинопоиск HD) Аудио 2: AC3, 6 ch, 448 Kbps - Русский (MVO, HDRezka Studio) Аудио 3: AC3, 6 ch, 448 Kbps - Русский (DVO, Pazl Voice) Аудио 4: AC3, 6 ch, 640 Kbps - Русский (АVO, М.Яроцкий/Kyberpunk) ненормативная лексика Аудио 5: AC3, 6 ch, 384 Kbps - Украинский (MVO, DniproFilm / HDRezka Studio) Аудио 6: АC3, 6 ch, 640 Kbps - Английский Формат субтитров: softsub (SRT) Релиз от: mike7025
[+] M/Ix264 : frame I:1411 Avg QP:12.42 size:119286 x264 : frame P:40699 Avg QP:13.87 size: 54603 x264 : frame B:110866 Avg QP:15.48 size: 23605 x264 : consecutive B-frames: 4.7% 9.8% 9.0% 25.5% 15.0% 23.1% 5.1% 5.9% 1.4% 0.5% * Some scenes with Banding / Blocking fixed * Dirty Lines fixed * Zoned Blue / Red Scenes General Unique ID : 338933334096526177168051204289387297995 (0xFEFC2F8BEB5C8105DCCF5305BC27FCCB) Complete name : G:Infinite.2021.BDRip.720p.mkv Format : Matroska Format version : Version 4 File size : 6.97 GiB Duration : 1 h 46 min Overall bit rate : 9 378 kb/s Encoded date : UTC 2022-01-22 14:38:01 Writing application : mkvmerge v20.0.0 ('I Am The Sun') 64-bit Writing library : libebml v1.3.5 + libmatroska v1.4.8 Video ID : 1 Format : AVC Format/Info : Advanced Video Codec Format profile : High@L4.1 Format settings : CABAC / 12 Ref Frames Format settings, CABAC : Yes Format settings, Reference frames : 12 frames Codec ID : V_MPEG4/ISO/AVC Duration : 1 h 46 min Bit rate : 6 279 kb/s Width : 1 280 pixels Height : 536 pixels Display aspect ratio : 2.40:1 Frame rate mode : Constant Frame rate : 23.976 (24000/1001) FPS Color space : YUV Chroma subsampling : 4:2:0 Bit depth : 8 bits Scan type : Progressive Bits/(Pixel*Frame) : 0.382 Stream size : 4.66 GiB (67%) Title : iFT Writing library : x264 core 164 r3079+60M Encoded by Azevedo in Brazil Encoding settings : cabac=1 / ref=12 / deblock=1:-3:-3 / analyse=0x3:0x113 / me=umh / subme=11 / psy=1 / fade_compensate=0.00 / psy_rd=1.00:0.00 / mixed_ref=1 / me_range=48 / chroma_me=1 / trellis=2 / 8x8dct=1 / cqm=0 / deadzone=21,11 / fast_pskip=0 / chroma_qp_offset=-2 / threads=17 / lookahead_threads=2 / sliced_threads=0 / nr=0 / decimate=0 / interlaced=0 / bluray_compat=0 / constrained_intra=0 / fgo=0 / bframes=9 / b_pyramid=2 / b_adapt=2 / b_bias=0 / direct=3 / weightb=1 / open_gop=0 / weightp=2 / keyint=250 / keyint_min=23 / scenecut=40 / intra_refresh=0 / rc_lookahead=60 / rc=crf / mbtree=0 / crf=15.6000 / qcomp=0.65 / qpmin=0:0:0 / qpmax=69:69:69 / qpstep=4 / vbv_maxrate=62500 / vbv_bufsize=78125 / crf_max=0.0 / nal_hrd=none / filler=0 / ip_ratio=1.30 / pb_ratio=1.20 / aq=3:0.80 / aq-sensitivity=10.00 / aq-factor=1.00:1.00:1.00 / aq2=0 / aq3=0 / zones=736,924,crf=12.6/49951,50571,crf=12.6/57098,57211,crf=13.6/77576,77659,crf=13.6/91702,91989,crf=13.6/92093,92294,crf=13.6/92444,92482,crf=13.6/92943,93023,crf=13.6/93104,93162,crf=13.6/93363,93503,crf=13.6/93547,93649,crf=13.6/93728,93751,crf=13.6/93752,93882,crf=13.6/93883,94140,crf=13.6/94187,95093,crf=13.6/95194,95244,crf=13.6/95338,95615,crf=13.6/95860,95911,crf=13.6/96055,96132,crf=13.6/96618,96721,crf=13.6/133922,134244,crf=12.6/140598,152819,crf=17.6 Language : English Default : Yes Forced : No Color range : Limited Color primaries : BT.709 Transfer characteristics : BT.709 Matrix coefficients : BT.709 Audio #1 ID : 2 Format : E-AC-3 Format/Info : Enhanced AC-3 Commercial name : Dolby Digital Plus Codec ID : A_EAC3 Duration : 1 h 46 min Bit rate mode : Constant Bit rate : 448 kb/s Channel(s) : 6 channels Channel layout : L R C LFE Ls Rs Sampling rate : 48.0 kHz Frame rate : 31.250 FPS (1536 SPF) Compression mode : Lossy Stream size : 341 MiB (5%) Title : Dub Кинопоиск HD Language : Russian Service kind : Complete Main Default : Yes Forced : No Audio #2 ID : 3 Format : AC-3 Format/Info : Audio Coding 3 Commercial name : Dolby Digital Codec ID : A_AC3 Duration : 1 h 46 min Bit rate mode : Constant Bit rate : 448 kb/s Channel(s) : 6 channels Channel layout : L R C LFE Ls Rs Sampling rate : 48.0 kHz Frame rate : 31.250 FPS (1536 SPF) Compression mode : Lossy Stream size : 341 MiB (5%) Title : MVО HDRezka Studio Language : Russian Service kind : Complete Main Default : No Forced : No Audio #3 ID : 4 Format : AC-3 Format/Info : Audio Coding 3 Commercial name : Dolby Digital Codec ID : A_AC3 Duration : 1 h 46 min Bit rate mode : Constant Bit rate : 448 kb/s Channel(s) : 6 channels Channel layout : L R C LFE Ls Rs Sampling rate : 48.0 kHz Frame rate : 31.250 FPS (1536 SPF) Compression mode : Lossy Stream size : 341 MiB (5%) Title : DVO Pazl Voice Language : Russian Service kind : Complete Main Default : No Forced : No Audio #4 ID : 5 Format : AC-3 Format/Info : Audio Coding 3 Commercial name : Dolby Digital Codec ID : A_AC3 Duration : 1 h 46 min Bit rate mode : Constant Bit rate : 640 kb/s Channel(s) : 6 channels Channel layout : L R C LFE Ls Rs Sampling rate : 48.0 kHz Frame rate : 31.250 FPS (1536 SPF) Compression mode : Lossy Stream size : 487 MiB (7%) Title : АVO М.Яроцкий/Kyberpunk ненормативная лексика Language : Russian Service kind : Complete Main Default : No Forced : No Audio #5 ID : 6 Format : AC-3 Format/Info : Audio Coding 3 Commercial name : Dolby Digital Codec ID : A_AC3 Duration : 1 h 46 min Bit rate mode : Constant Bit rate : 384 kb/s Channel(s) : 6 channels Channel layout : L R C LFE Ls Rs Sampling rate : 48.0 kHz Frame rate : 31.250 FPS (1536 SPF) Compression mode : Lossy Stream size : 292 MiB (4%) Title : MVO DniproFilm / HDRezka Studio Language : Ukrainian Service kind : Complete Main Default : No Forced : No Audio #6 ID : 7 Format : AC-3 Format/Info : Audio Coding 3 Commercial name : Dolby Digital Codec ID : A_AC3 Duration : 1 h 46 min Bit rate mode : Constant Bit rate : 640 kb/s Channel(s) : 6 channels Channel layout : L R C LFE Ls Rs Sampling rate : 48.0 kHz Frame rate : 31.250 FPS (1536 SPF) Compression mode : Lossy Stream size : 487 MiB (7%) Language : English Service kind : Complete Main Default : No Forced : No Text #1 ID : 8 Format : UTF-8 Codec ID : S_TEXT/UTF8 Codec ID/Info : UTF-8 Plain Text Duration : 1 h 44 min Bit rate : 0 b/s Count of elements : 15 Stream size : 594 Bytes (0%) Title : forced Language : Russian Default : Yes Forced : No Text #2 ID : 9 Format : UTF-8 Codec ID : S_TEXT/UTF8 Codec ID/Info : UTF-8 Plain Text Duration : 1 h 35 min Bit rate : 1 b/s Count of elements : 18 Stream size : 771 Bytes (0%) Title : forced HDRezka Studio Language : Russian Default : No Forced : No Text #3 ID : 10 Format : UTF-8 Codec ID : S_TEXT/UTF8 Codec ID/Info : UTF-8 Plain Text Duration : 1 h 35 min Bit rate : 0 b/s Count of elements : 19 Stream size : 582 Bytes (0%) Title : forced Language : Ukrainian Default : No Forced : No Text #4 ID : 11 Format : UTF-8 Codec ID : S_TEXT/UTF8 Codec ID/Info : UTF-8 Plain Text Duration : 1 h 45 min Bit rate : 61 b/s Count of elements : 963 Stream size : 47.7 KiB (0%) Language : Russian Default : No Forced : No Text #5 ID : 12 Format : UTF-8 Codec ID : S_TEXT/UTF8 Codec ID/Info : UTF-8 Plain Text Duration : 1 h 41 min Bit rate : 66 b/s Count of elements : 965 Stream size : 49.3 KiB (0%) Title : PhysKids ненормативная лексика Language : Russian Default : No Forced : No Text #6 ID : 13 Format : UTF-8 Codec ID : S_TEXT/UTF8 Codec ID/Info : UTF-8 Plain Text Duration : 1 h 36 min Bit rate : 43 b/s Count of elements : 947 Stream size : 30.8 KiB (0%) Language : English Default : No Forced : No Text #7 ID : 14 Format : UTF-8 Codec ID : S_TEXT/UTF8 Codec ID/Info : UTF-8 Plain Text Duration : 1 h 45 min Bit rate : 39 b/s Count of elements : 946 Stream size : 30.6 KiB (0%) Language : French Default : No Forced : No Text #8 ID : 15 Format : PGS Muxing mode : zlib Codec ID : S_HDMV/PGS Codec ID/Info : Picture based subtitle format used on BDs/HD-DVDs Duration : 1 h 45 min Bit rate : 27.1 kb/s Count of elements : 1830 Stream size : 20.4 MiB (0%) Language : German Default : No Forced : No Text #9 ID : 16 Format : PGS Muxing mode : zlib Codec ID : S_HDMV/PGS Codec ID/Info : Picture based subtitle format used on BDs/HD-DVDs Duration : 1 h 45 min Bit rate : 24.2 kb/s Count of elements : 1872 Stream size : 18.3 MiB (0%) Language : Spanish Default : No Forced : No Text #10 ID : 17 Format : PGS Muxing mode : zlib Codec ID : S_HDMV/PGS Codec ID/Info : Picture based subtitle format used on BDs/HD-DVDs Duration : 1 h 45 min Bit rate : 26.6 kb/s Count of elements : 1914 Stream size : 20.1 MiB (0%) Language : Finnish Default : No Forced : No Text #11 ID : 18 Format : PGS Muxing mode : zlib Codec ID : S_HDMV/PGS Codec ID/Info : Picture based subtitle format used on BDs/HD-DVDs Duration : 1 h 45 min Bit rate : 26.0 kb/s Count of elements : 1916 Stream size : 19.6 MiB (0%) Language : Danish Default : No Forced : No Text #12 ID : 19 Format : PGS Muxing mode : zlib Codec ID : S_HDMV/PGS Codec ID/Info : Picture based subtitle format used on BDs/HD-DVDs Duration : 1 h 45 min Bit rate : 24.9 kb/s Count of elements : 1822 Stream size : 18.8 MiB (0%) Language : Swedish Default : No Forced : No Text #13 ID : 20 Format : PGS Muxing mode : zlib Codec ID : S_HDMV/PGS Codec ID/Info : Picture based subtitle format used on BDs/HD-DVDs Duration : 1 h 45 min Bit rate : 23.6 kb/s Count of elements : 1886 Stream size : 17.8 MiB (0%) Language : Norwegian Default : No Forced : No Text #14 ID : 21 Format : PGS Muxing mode : zlib Codec ID : S_HDMV/PGS Codec ID/Info : Picture based subtitle format used on BDs/HD-DVDs Duration : 1 h 45 min Bit rate : 21.2 kb/s Count of elements : 1924 Stream size : 16.0 MiB (0%) Language : Chinese Default : No Forced : No Menu 00:00:00.000 : en:Capítulo 01 00:07:49.094 : en:Capítulo 02 00:12:45.098 : en:Capítulo 03 00:18:58.554 : en:Capítulo 04 00:25:51.633 : en:Capítulo 05 00:32:25.402 : en:Capítulo 06 00:38:25.136 : en:Capítulo 07 00:46:41.007 : en:Capítulo 08 00:54:22.801 : en:Capítulo 09 01:02:59.275 : en:Capítulo 10 01:11:01.007 : en:Capítulo 11 01:19:41.443 : en:Capítulo 12 01:28:27.135 : en:Capítulo 13 01:37:44.692 : en:Capítulo 14
[+] Скриншоты

Всего файлов в раздаче: 1 
Infinite.2021.BDRip.720p.mkv6.97 GB

Похожие раздачи по запросу - Бесконечность
2024-05-11 magnet Бесконечность / Infinite (2021) BDRip 1080p | D, P, A, L2 13.24 GB ↑ 0 ↓ 0
2023-11-14 magnet Путешествие в бесконечность / A Trip to Infinity (2022) WEB-DL 1080p | Sub 3.78 GB ↑ 1 ↓ 0

Комментарии


Зарегистрируйтесь чтобы добавить комментарий
Торрент клиент
byTorrent - программа для загрузки торрент-файлов.

Скачать byTorrent.exe (1,5 МБ)

Скачать byTorrent.zip (0,6 МБ)

Поддержи torrent.by
российских рублей
(300 российских рублей это 4$)

Обратная связь rss

End game ©