↑↓torrent.by
Поиск
Логин:  Регистрация
Пароль:

Падение империи / Civil War (2024) TS-AVC | D | TS

download Скачать торрент-файл   magnet Магнитная ссылка Размер: 2.01 GB Раздают: 0 Качают: 5 Добавлен: 2024-05-11 17:00
Пиры будут получены из сети DHT
Последний сидер был замечен сегодня в 01:27
Информация о фильме Название: Падение империи Оригинальное название: Civil War Год выхода: 2024 Жанр: боевик, драма, триллер, антиутопия Режиссер: Алекс Гарленд В ролях: Кирстен Данст, Вагнер Моура, Кэйли Спэни, Стивен Хендерсон, Соноя Мидзуно, Ник Офферман, Джефферсон Уайт, Хуани Фелиз, Нельсон Ли, Эдмунд Донован О фильме: Национальная гвардия Калифорнии и Техаса при поддержке боевой техники и авиации штурмуют столицу. Белый дом вот-вот падет. Группа журналистов пытается добраться до пылающего Вашингтона, чтобы взять последнее интервью у президента некогда Соединенных Штатов Америки. Но в стране, где царит хаос, нет ничего дороже литра бензина и ничего дешевле, чем человеческая жизнь. Выпущено: США, Великобритания / A24, DNA Films, IPR.VC Продолжительность: 01:42:05 Озвучивание: Дублированное | Пифагор | Звук с TS Доп. информация: Дорожка с переводом получена очисткой и последующей обработкой звука экранки. Файлы Формат: MKV Качество: TS-AVC Видео: MPEG-4 AVC, 2596 Kb/s, 1152x512 Аудио: Russian: AC3, 224 Kb/s (2 ch) Субтитры: Нет Скачать: Сэмпл Автор релиза: Sound Master
[+] Инфо-файл:Complete name : Civil.War.2024.TS.Rus.Dub.2.0.mkv Format : Matroska Format version : Version 4 / Version 2 File size : 2.01 GiB Duration : 1 h 42 min Overall bit rate : 2 821 kb/s Encoded date : UTC 2024-05-09 06:05:55 Writing application : mkvmerge v65.0.0 ('Too Much') 64-bit Writing library : libebml v1.4.2 + libmatroska v1.6.4 Video ID : 1 Format : AVC Format/Info : Advanced Video Codec Format profile : High@L4.1 Format settings : CABAC / 12 Ref Frames Format settings, CABAC : Yes Format settings, ReFrames : 12 frames Codec ID : V_MPEG4/ISO/AVC Duration : 1 h 42 min Bit rate : 2 596 kb/s Width : 1 152 pixels Height : 512 pixels Display aspect ratio : 2.25:1 Frame rate mode : Constant Frame rate : 24.000 FPS Color space : YUV Chroma subsampling : 4:2:0 Bit depth : 8 bits Scan type : Progressive Bits/(Pixel*Frame) : 0.183 Stream size : 1.85 GiB (92%) Title : Civil.War.2024 Writing library : x264 core 148 r2638 7599210 Encoding settings : cabac=1 / ref=12 / deblock=1:0:0 / analyse=0x3:0x113 / me=umh / subme=10 / psy=1 / psy_rd=1.00:0.00 / mixed_ref=1 / me_range=24 / chroma_me=1 / trellis=2 / 8x8dct=1 / cqm=0 / deadzone=21,11 / fast_pskip=1 / chroma_qp_offset=-2 / threads=12 / lookahead_threads=3 / sliced_threads=0 / nr=0 / decimate=1 / interlaced=0 / bluray_compat=0 / constrained_intra=0 / bframes=12 / b_pyramid=2 / b_adapt=2 / b_bias=0 / direct=3 / weightb=1 / open_gop=0 / weightp=2 / keyint=250 / keyint_min=23 / scenecut=40 / intra_refresh=0 / rc_lookahead=60 / rc=2pass / mbtree=1 / bitrate=2596 / ratetol=1.0 / qcomp=0.60 / qpmin=0 / qpmax=69 / qpstep=4 / cplxblur=20.0 / qblur=0.5 / ip_ratio=1.40 / aq=1:1.00 Default : Yes Forced : No Color range : Limited Color primaries : BT.709 Transfer characteristics : BT.709 Matrix coefficients : BT.709 Audio ID : 2 Format : AC-3 Format/Info : Audio Coding 3 Codec ID : A_AC3 Duration : 1 h 42 min Bit rate mode : Constant Bit rate : 224 kb/s Channel(s) : 2 channels Channel positions : Front: L R Sampling rate : 48.0 kHz Frame rate : 31.250 FPS (1536 SPF) Bit depth : 16 bits Compression mode : Lossy Stream size : 164 MiB (8%) Title : Rus. Dub. TS. 2.0. 224 Language : Russian Service kind : Complete Main Default : Yes Forced : No
[+] Скриншоты

Всего файлов в раздаче: 1 
Civil.War.2024.TS.Rus.Dub.2.0.mkv2.01 GB

Похожие раздачи по запросу - Падение
2024-05-08 magnet Падение дома Ашеров / The Fall of the House of Usher [S01] (2023) UHD WEB-DL-HEVC 2160p | 4K | HDR10+ | P 70.32 GB ↑ 0 ↓ 0
2024-05-02 magnet Дмитрий Распопов - Венецианский купец 6. Падение Твердыни (2023) MP3 285.28 MB ↑ 0 ↓ 0
2024-04-25 magnet Время преступления: Свободное падение / CrimeTime: Freefall (2024) WEB-DL 1080p | ViruseProject 4.93 GB ↑ 0 ↓ 0
2024-04-24 magnet Время преступления: Свободное падение / CrimeTime: Freefall (2024) WEB-DLRip 720p от DoMiNo & селезень | P2 | ViruseProject 1.88 GB ↑ 0 ↓ 0
2024-04-24 magnet Время преступления: Свободное падение / CrimeTime: Freefall (2024) WEB-DLRip от New-Team | P2 | ViruseProject 1.46 GB ↑ 0 ↓ 0
2024-04-22 magnet Время преступления: Свободное падение / CrimeTime: Freefall (2024) WEB-DLRip от New-Team | P2 | ViruseProject 1.46 GB ↑ 0 ↓ 0
2024-04-22 magnet Время преступления: Свободное падение / CrimeTime: Freefall (2024) WEB-DL 1080p | ViruseProject 4.93 GB ↑ 0 ↓ 0

Кто качает (только для создателя раздачи и модераторов):
ПользовательIP:портОтдалПринялОстатокСидируетТоррент клиентОбновился
1 Аноним 186.60.54.178:32000 0.00 B 328.48 MB 1.94 GB нет -qB4390- 07:07 2024-05-19
2 Аноним 89.179.242.174:6881 0.00 B 0.00 B 8589934592.00 GB нет 01234567 07:30 2024-05-19
3 Аноним 164.38.164.212:33925 0.00 B 0.00 B 8589934592.00 GB нет -qB4390- 06:59 2024-05-19
4 Аноним 91.235.145.241:37021 0.00 B 0.00 B 8589934592.00 GB нет -qB4390- 07:06 2024-05-19
5 Аноним 11.120.45.178:39167 0.00 B 0.00 B 8589934592.00 GB нет -qB4390- 07:18 2024-05-19

Комментарии


Зарегистрируйтесь чтобы добавить комментарий
Торрент клиент
byTorrent - программа для загрузки торрент-файлов.

Скачать byTorrent.exe (1,5 МБ)

Скачать byTorrent.zip (0,6 МБ)

Поддержи torrent.by
российских рублей
(300 российских рублей это 4$)

Обратная связь rss

End game ©